.
Авторизация | Регистрация
Хочешь лучшие торренты? Добавь свой email!
Добавить

Торрент скачать бесплатно

  • support: webmaster@btracker.club
» » Darling in the Franxx | Любимый во Франксе [2018, TV, 24 эп.] BDRemux 1080p raw+rus торрент скачать бесплатно


    Darling in the Franxx | Любимый во Франксе [2018, TV, 24 эп.] BDRemux 1080p raw+rus торрент скачать бесплатно

    Опубликовал: fregat | Дата: 1-01-2019, 05:00 | .torrent скачали: 0

    Darling in the Franxx | Любимый во Франксе [2018, TV, 24 эп.] BDRemux 1080p raw+rusТип: TV
    Жанр: Приключения, Фантастика, Меха
    Продолжительность: 25 мин.
    Количество серий: 24 эп.
    Дата выпуска: c 13.01.2018 по 07.07.2018
    Производство: Trigger, CloverWorks
    Режиссер: Нисигори Ацуси
    Ссылки: World-Art

    Описание

    Далекое будущее. Земля в руинах, и на остатки человечества наводят ужас таинственные гигантские формы жизни, известные как кёрю — ревущие драконы. Чтобы противостоять им, люди создали передвижное фортификационное сооружение, названное Плантацией, где растут и обучаются юные пилоты роботов Франкс.
    Единственная цель, ради которой живут эти дети, — уничтожение кёрю после прохождения специальной подготовки. Но чтобы управлять роботом — необходимо двое: мужчина и женщина, тычинка и пестик. И если один не справляется, статуса пилота лишаются оба, что и для того и для другого значит ни много ни мало утратить смысл существования.
    Хиро считали одаренным. До тех пор, пока он не провалился на экзамене вместе со своей напарницей. Птица, которая никогда не взлетит, — так чувствовал себя мальчик с того времени и даже не догадывался, что скоро встретит человека с похожей судьбой...
    Убийца напарников, рогатая девчонка, в жилах которой течет кровь кёрю. Станешь ли ты моим Любимый? — спросила она не то шутки ради, не то — всерьез. И для Хиро вдруг снова нашлось место в мире...
    Качество видео: BDRemux
    Формат видео: AVC/H.264, 23.976 FPS, 0.759 bit/pixel
    Размер кадра: 1920х1080
    Битрейт видео: ~39.5 Mb/s
    Язык озвучки: Японский и Русский
    Аудио 1: JAP - FLAC 48.0 kHz 2ch - 1 409 kb/s Original
    Аудио 2: RUS - AAC 48.0 kHz 2ch - 192 kb/s AniLibria
    Аудио 3: RUS - AAC 48.0 kHz 2ch - 128 kb/s AniDub

    Скриншоты для ознакомления



    Общее
    Уникальный идентификатор : 139185863548420945206768570532062226980 (0x68B638E50120F6AD5E8AE7A3AF7EEA24)
    Полное имя : M: Anime_Torrent_42018 Darling in the FranXX1. Alone and Lonesome.mkv
    Формат : Matroska
    Версия формата : Version 4
    Размер файла : 6, 62 Гбайт
    Продолжительность : 24 м. 2 с.
    Режим общего битрейта : Переменный
    Общий поток : 39, 5 Мбит/сек
    Дата кодирования : UTC 2018-12-29 13: 56: 04
    Программа кодирования : mkvmerge v29.0.0 (\'Like It Or Not\') 64-bit
    Библиотека кодирования : libebml v1.3.6 + libmatroska v1.4.9
    Видео
    Идентификатор : 1
    Формат : AVC
    Формат/Информация : Advanced Video Codec
    Профиль формата : High@L4.1
    Настройки формата : CABAC/4 Ref Frames
    Параметр CABAC формата : Да
    Параметр RefFrames формата : 4 кадра
    Идентификатор кодека : V_MPEG4/ISO/AVC
    Продолжительность : 24 м. 2 с.
    Вид битрейта : Переменный
    Битрейт : 37, 7 Мбит/сек
    Максимальный битрейт : 40, 0 Мбит/сек
    Ширина : 1920 пикселей
    Высота : 1080 пикселей
    Соотношение сторон : 16: 9
    Режим частоты кадров : Постоянный
    Частота кадров : 23, 976 (24000/1001) кадра/сек
    Цветовое пространство : YUV
    Субдискретизация насыщенности : 4: 2: 0
    Битовая глубина : 8 бит
    Тип развёртки : Прогрессивная
    Бит/(Пиксели*Кадры) : 0.759
    Размер потока : 6, 33 Гбайт (96%)
    Язык : Japanese
    Default : Да
    Forced : Нет
    Аудио #1
    Идентификатор : 2
    Формат : FLAC
    Формат/Информация : Free Lossless Audio Codec
    Идентификатор кодека : A_FLAC
    Продолжительность : 24 м. 2 с.
    Вид битрейта : Переменный
    Битрейт : 1409 Кбит/сек
    Каналы : 2 канала
    Channel layout : L R
    Частота : 48, 0 КГц
    Частота кадров : 11, 719 кадров/сек (4096 SPF)
    Битовая глубина : 24 бит
    Метод сжатия : Без потерь
    Размер потока : 242 Мбайт (4%)
    Заголовок : Original
    Библиотека кодирования : libFLAC 1.2.1 (UTC 2007-09-17)
    Язык : Japanese
    Default : Да
    Forced : Нет
    Аудио #2
    Идентификатор : 3
    Формат : AAC LC
    Формат/Информация : Advanced Audio Codec Low Complexity
    Идентификатор кодека : A_AAC-2
    Продолжительность : 24 м. 1 с.
    Битрейт : 192 Кбит/сек
    Каналы : 2 канала
    Channel layout : L R
    Частота : 48, 0 КГц
    Частота кадров : 46, 875 кадров/сек (1024 SPF)
    Метод сжатия : С потерями
    Задержка видео : 9 мс.
    Размер потока : 32, 6 Мбайт (0%)
    Заголовок : AniLibria
    Язык : Russian
    Default : Нет
    Forced : Нет
    Аудио #3
    Идентификатор : 4
    Формат : AAC LC
    Формат/Информация : Advanced Audio Codec Low Complexity
    Идентификатор кодека : A_AAC-2
    Продолжительность : 24 м. 1 с.
    Битрейт : 128 Кбит/сек
    Каналы : 2 канала
    Channel layout : L R
    Частота : 48, 0 КГц
    Частота кадров : 46, 875 кадров/сек (1024 SPF)
    Метод сжатия : С потерями
    Задержка видео : 957 мс.
    Размер потока : 22, 0 Мбайт (0%)
    Заголовок : AniDub
    Язык : Russian
    Default : Нет
    Forced : Нет
    Время раздачи: Пн-Пт с 12: 00 до 00: 00 (до появления первых 3-5 скачавших)


    Онлайн видео Darling in the Franxx



    Darling in the Franxx | Любимый во Франксе [2018, TV, 24 эп.] BDRemux 1080p raw+rus
    Рейтинг →
     (голосов: 1, оценка 5/5, голосовать можно 1 раз )

    Другие торренты по теме:

  • Darling in the Franxx / Возлюбленный во «ФранКс» [2018, TV, 1 из 12] WEB-DL 720p Raw+Rus
  • Darling in the Franxx | Любимый во Франксе [2018, TV, 3 из 24 эп.] BDrip 1080p raw


    • Комментарии (0):

      Информация

      Информация

        Посетители, находящиеся в группе Гости, не могут оставлять комментарии в данной новости.

        ↓ Меню




        ↓ Опрос

        Вы добавили сайт в закладки?
        Да
        Нет


        Top 10 за месяц (Мультфильмы)