.
Авторизация | Регистрация
Хочешь лучшие торренты? Добавь свой email!
Добавить

Торрент скачать бесплатно

  • support: webmaster@btracker.club
» » Принц Египта / The Prince of Egypt (1998) BDRip [H.264 / 1080p] торрент скачать бесплатно


    Принц Египта / The Prince of Egypt (1998) BDRip [H.264 / 1080p] торрент скачать бесплатно

    Опубликовал: fregat | Дата: 30-12-2018, 16:13 | .torrent скачали: 0

    Принц Египта / The Prince of Egypt (1998) BDRip [H.264 / 1080p]Производство: США/DreamWorks Animation
    Жанр: Мюзикл, Приключения, Семейный, История
    Режиссер: Бренда Чепмен, Стив Хикнер, Саймон Уэллс

    Актеры
    Вэл Килмер, Рэйф Файнс, Мишель Пфайффер, Сандра Буллок, Джефф Голдблюм, Дэнни Гловер, Патрик Стюарт, Хелен Миррен, Стив Мартин, Мартин Шорт, Офра Хаза

    Описание

    Эта история случилась на заре цивилизации в Древнем Египте. Стремительный и величавый Нил вынес на берег перед дворцом фараона корзину с младенцем. Могущественный правитель усыновил крошечного мальчика и дал ему имя Моисей.
    Шли годы… Моисей и его брат Рамзес росли вместе. Но придет день, когда один из братьев станет владыкой величайшей империи на земле, а другой — святым… Противоборство героев навсегда изменит их судьбы и историю человечества.
    Великолепный мультфильм для семейного просмотра, в озвучивании которого принимали участие голливудские звезды первой величины.

    Возраст: 0+ (для любой зрительской аудитории)
    Рейтинг MPAA: PG (рекомендуется присутствие родителей)
    Продолжительность: 01: 38: 41
    Качество видео: BDRip
    Перевод: Дублированный, многоголосый закадровый, одноголосый авторский
    Субтитры: русские (полные), английские (полные)
    Видео: AVC/H.264, 1920x1036, ~10 Mbps
    Аудио: AC3, 2 ch, 192 kbps - русский (дубляж, ОРТ)
    Аудио: AC3, 2 ch, 192 kbps - русский (MVO, Премьер Мультимедиа)
    Аудио: AC3, 6 ch, 640 kbps - русский (AVO, С. Визгунов)
    Аудио: DTS, 6 ch, 768 kbps - английский
    Аудио: AC3, 2 ch, 192 kbps - английский (музыка и песни, без диалогов)

    x264 info: frame I: 1010 Avg QP: 15.44 size: 207588
    x264 info: frame P: 32659 Avg QP: 17.57 size: 93254
    x264 info: frame B: 109011 Avg QP: 19.49 size: 38344
    Unique ID : 200990259252825178637132663582687989360 (0x973550DDAD37C50DB608705AA0D38E70)
    Complete name : D: TempПринц Египта.mkv
    Format : Matroska
    Format version : Version 4/Version 2
    File size : 8.30 GiB
    Duration : 1h 39mn
    Overall bit rate : 12.0 Mbps
    Movie name : The Prince of Egypt.1998.BDRemux 1080p
    Encoded date : UTC 2018-12-28 05: 00: 42
    Writing application : mkvmerge v9.8.0 (\'Kuglblids\') 64bit
    Writing library : libebml v1.3.4 + libmatroska v1.4.5
    Video
    ID : 1
    Format : AVC
    Format/Info : Advanced Video Codec
    Format profile : High@L4.1
    Format settings, CABAC : Yes
    Format settings, ReFrames : 4 frames
    Codec ID : V_MPEG4/ISO/AVC
    Duration : 1h 39mn
    Bit rate : 10 000 Kbps
    Width : 1 920 pixels
    Height : 1 036 pixels
    Display aspect ratio : 1.85: 1
    Frame rate mode : Constant
    Frame rate : 23.976 fps
    Color space : YUV
    Chroma subsampling : 4: 2: 0
    Bit depth : 8 bits
    Scan type : Progressive
    Bits/(Pixel*Frame) : 0.210
    Stream size : 6.76 GiB (81%)
    Writing library : x264 core 157 r2935M 545de2f
    Encoding settings : cabac=1/ref=4/deblock=1: -3: -3/analyse=0x3: 0x113/me=umh/subme=10/psy=1/psy_rd=1.05: 0.10/mixed_ref=1/me_range=24/chroma_me=1/trellis=2/8x8dct=1/cqm=0/deadzone=21, 11/fast_pskip=0/chroma_qp_offset=-3/threads=5/lookahead_threads=1/sliced_threads=0/nr=0/decimate=0/interlaced=0/bluray_compat=0/constrained_intra=0/bframes=6/b_pyramid=2/b_adapt=2/b_bias=0/direct=1/weightb=1/open_gop=0/weightp=2/keyint=240/keyint_min=24/scenecut=40/intra_refresh=0/rc=2pass/mbtree=0/bitrate=10000/ratetol=1.0/qcomp=0.70/qpmin=3/qpmax=69/qpstep=4/cplxblur=20.0/qblur=0.5/ip_ratio=1.40/pb_ratio=1.30/aq=2: 1.00
    Language : English
    Default : Yes
    Forced : No
    Audio #1
    ID : 2
    Format : AC-3
    Format/Info : Audio Coding 3
    Mode extension : CM (complete main)
    Format settings, Endianness : Big
    Codec ID : A_AC3
    Duration : 1h 39mn
    Bit rate mode : Constant
    Bit rate : 192 Kbps
    Channel(s) : 1 channel
    Channel positions : Front: C
    Sampling rate : 48.0 KHz
    Bit depth : 16 bits
    Compression mode : Lossy
    Stream size : 136 MiB (2%)
    Title : DUB (Первый канал)
    Language : Russian
    Audio #2
    ID : 3
    Format : AC-3
    Format/Info : Audio Coding 3
    Mode extension : CM (complete main)
    Format settings, Endianness : Big
    Codec ID : A_AC3
    Duration : 1h 39mn
    Bit rate mode : Constant
    Bit rate : 192 Kbps
    Channel(s) : 2 channels
    Channel positions : Front: L R
    Sampling rate : 48.0 KHz
    Bit depth : 16 bits
    Compression mode : Lossy
    Stream size : 136 MiB (2%)
    Title : MVO (Премьер Мультимедиа)
    Language : Russian
    Audio #3
    ID : 4
    Format : AC-3
    Format/Info : Audio Coding 3
    Mode extension : CM (complete main)
    Format settings, Endianness : Big
    Codec ID : A_AC3
    Duration : 1h 39mn
    Bit rate mode : Constant
    Bit rate : 640 Kbps
    Channel(s) : 6 channels
    Channel positions : Front: L C R, Side: L R, LFE
    Sampling rate : 48.0 KHz
    Bit depth : 16 bits
    Compression mode : Lossy
    Stream size : 454 MiB (5%)
    Title : AVO (С. Визгунов)
    Language : Russian
    Audio #4
    ID : 5
    Format : DTS
    Format/Info : Digital Theater Systems
    Mode : 16
    Format settings, Endianness : Big
    Codec ID : A_DTS
    Duration : 1h 39mn
    Bit rate mode : Constant
    Bit rate : 768 Kbps
    Channel(s) : 6 channels
    Channel positions : Front: L C R, Side: L R, LFE
    Sampling rate : 48.0 KHz
    Bit depth : 16 bits
    Compression mode : Lossy
    Stream size : 545 MiB (6%)
    Title : ENG
    Language : English
    Audio #5
    ID : 6
    Format : AC-3
    Format/Info : Audio Coding 3
    Mode extension : CM (complete main)
    Format settings, Endianness : Big
    Codec ID : A_AC3
    Duration : 1h 39mn
    Bit rate mode : Constant
    Bit rate : 192 Kbps
    Channel(s) : 1 channel
    Channel positions : Front: C
    Sampling rate : 48.0 KHz
    Bit depth : 16 bits
    Compression mode : Lossy
    Stream size : 136 MiB (2%)
    Title : музыка
    Language : English
    Text #1
    ID : 7
    Format : UTF-8
    Codec ID : S_TEXT/UTF8
    Codec ID/Info : UTF-8 Plain Text
    Title : Rus Sub
    Language : Russian
    Default : Yes
    Forced : No
    Text #2
    ID : 8
    Format : UTF-8
    Codec ID : S_TEXT/UTF8
    Codec ID/Info : UTF-8 Plain Text
    Title : Eng Sub
    Language : English
    Default : No
    Forced : No

    Скриншоты для ознакомления



    Все одноименные релизы в Клубе
    Время раздачи: 24/7 (до появления первых 3-5 скачавших)


    Онлайн видео Принц Египта



    Принц Египта/The Prince of Egypt (1998) BDRip [H.264/1080p]
    Рейтинг →
     (голосов: 1, оценка 3/5, голосовать можно 1 раз )

    Другие торренты по теме:

  • Принц Египта / The Prince of Egypt (1998) WEB-DL [H.264 / 720p-LQ] скачать через торрент бесплатно
  • Принц Египта / The Prince of Egypt (1998) WEBDLRip скачать через торрент бесплатно
  • Мумия: Принц Египта / Tale of the Mummy (1998) HDRip [H.264] [MVO]


    • Комментарии (0):

      Информация

      Информация

        Посетители, находящиеся в группе Гости, не могут оставлять комментарии в данной новости.

        ↓ Меню




        ↓ Опрос

        Вы добавили сайт в закладки?
        Да
        Нет


        Top 10 за месяц (Мультфильмы)