.
Авторизация | Регистрация
Хочешь лучшие торренты? Добавь свой email!
Добавить

Торрент скачать бесплатно

  • support: webmaster@btracker.club
» » Чучело (1983) DVDRip [H.264] торрент скачать бесплатно


    Чучело (1983) DVDRip [H.264] торрент скачать бесплатно

    Опубликовал: fregat | Дата: 30-12-2018, 16:13 | .torrent скачали: 0

    Чучело (1983) DVDRip [H.264]Производство: СССР
    Жанр: драма
    Режиссер: Ролан Быков, Аркадий Хайт

    Актеры
    Кристина Орбакайте, Юрий Никулин, Елена Санаева, Дмитрий Егоров, Ксения Филиппова, Анна Толмачева, Марина Маратова, Светлана Крючкова, Ролан Быков, Олег Быков

    Описание
    Полный драматических коллизий фильм, снятый по мотивам одноименной повести В. Железникова. История чистой, мужественной и самоотверженной девочки Лены, прозванной одноклассниками чучелом, заставит вас на многое взглянуть другими глазами.

    Возраст: 12+ (зрителям, достигшим 12 лет)
    Релиз от: almikl
    Продолжительность: 01: 02: 53+00: 57: 12
    Качество: DVDRip-AVC
    Видео: AVC/H.264, 1616 Kbps, 720x300
    Аудио: AC3, 384 Kbps, 48.0 KHz, 6 ch
    Код: выделить все
    Общее
    Уникальный идентификатор : 128604546946676500094546029383164027953 (0x60C055B51E4878E7FFF32505F7A2E431)
    Полное имя : Чучело (1983) DVDRip.nnmclubE01.Чучело.1983.DVDRip.h264.almikl.nnmclub.mkv
    Формат : Matroska
    Версия формата : Version 2
    Размер файла : 901 Мбайт
    Продолжительность : 1 ч. 2 м.
    Общий поток : 2002 Кбит/сек
    Дата кодирования : UTC 2018-12-28 08:57:19
    Программа кодирования : mkvmerge v29.0.0 (\'Like It Or Not\') 64-bit
    Библиотека кодирования : libebml v1.3.6 + libmatroska v1.4.9
    Видео
    Идентификатор : 1
    Формат : AVC
    Формат/Информация : Advanced Video Codec
    Профиль формата :High@L4.1
    Настройки формата : CABAC/7 Ref Frames
    Параметр CABAC формата : Да
    Параметр RefFrames формата : 7 кадров
    Идентификатор кодека : V_MPEG4/ISO/AVC
    Продолжительность : 1 ч. 2 м.
    Битрейт : 1616 Кбит/сек
    Ширина : 720 пикселей
    Высота : 300 пикселей
    Соотношение сторон : 2, 40:1
    Режим частоты кадров : Постоянный
    Частота кадров : 25, 000 кадров/сек
    Цветовое пространство : YUV
    Субдискретизация насыщенности : 4:2:0
    Битовая глубина : 8 бит
    Тип развёртки : Прогрессивная
    Бит/(Пиксели*Кадры) : 0.299
    Размер потока : 727 Мбайт (81%)
    Библиотека кодирования : x264 core 157 r2935 545de2f
    Настройки программы : cabac=1/ref=7/deblock=1:-2:-2/analyse=0x3:0x133/me=umh/subme=10/psy=1/psy_rd=1.00:0.25/mixed_ref=1/me_range=24/chroma_me=1/trellis=2/8x8dct=1/cqm=0/deadzone=6, 6/fast_pskip=0/chroma_qp_offset=-4/threads=6/lookahead_threads=1/sliced_threads=0/nr=0/decimate=0/interlaced=0/bluray_compat=0/constrained_intra=0/bframes=9/b_pyramid=2/b_adapt=2/b_bias=0/direct=1/weightb=1/open_gop=0/weightp=2/keyint=240/keyint_min=23/scenecut=40/intra_refresh=0/rc_lookahead=40/rc=2pass/mbtree=1/bitrate=1616/ratetol=1.0/qcomp=0.60/qpmin=0/qpmax=69/qpstep=4/cplxblur=20.0/qblur=0.5/vbv_maxrate=50000/vbv_bufsize=62500/nal_hrd=none/filler=0/ip_ratio=1.10/aq=3:0.80
    Default : Да
    Forced : Нет
    Аудио
    Идентификатор : 2
    Формат : AC-3
    Формат/Информация : Audio Coding 3
    Коммерческое название : Dolby Digital
    Идентификатор кодека : A_AC3
    Продолжительность : 1 ч. 2 м.
    Вид битрейта : Постоянный
    Битрейт : 384 Кбит/сек
    Каналы : 6 каналов
    Channel layout : L R C LFE Ls Rs
    Частота : 48, 0 КГц
    Частота кадров : 31, 250 кадров/сек (1536 SPF)
    Битовая глубина : 16 бит
    Метод сжатия : С потерями
    Размер потока : 173 Мбайт (19%)
    Язык : new
    ServiceKind/String : Complete Main
    Default : Да
    Forced : Нет
    /hide
    hide=Знаете ли Вы, что...…На пятый день съемок фильма в Твери (тогда город Калинин) Кристина Орбакайте сломала руку, упав на лестнице. Оставшуюся часть съемочного процесса девочка играла со сломаной рукой.
    …Фильм снят по одноимённой повести Владимира Железникова (1981).
    …Чучело снималось в Твери, отдельные сцены в г. Торжке (Тверская область).
    …На одну из ролей пробовался Алексей Фомкин. Так же в фильм пробовались Филипп Янковский и Мария Миронова.
    …Павел Санаев признался, что был влюблён в Анну Толмачеву, но девочка была старше его и не отвечала взаимностью.
    …Когда Сомов в финале пытается выпрыгнуть из окна, за кадром звучит песня Беловежская пуща.
    …На роль Лены Бесольцевой Ролан Быков отсмотрел около семнадцати тысяч девочек со всего Союза.
    …На роль красавчика и слабака Мити Ролан Быков сначала утвердил сына Олега Янковского, Филиппа. Но его родители вдруг решили, что съемки помешают учебе и не отпустили мальчика в экспедицию. Быков объявил Олегу Янковскому бойкот, а на роль Мити взял Дмитрия Егорова, сына другой советской кинозвезды, Натальи Кустинской.
    …Ища актеров на роли детей, Быков, по слухам, просмотрел 27 тысяч кандидатов по всей стране.

    Скриншоты для ознакомления



    Время раздачи: 24/7, до 10 скачавших
    Все релизыЧучело (1983)на NNM-CLUB


    Онлайн видео Надежда Чубарова



    Чучело (1983) DVDRip [H.264]
    Рейтинг →
     (голосов: 1, оценка 3/5, голосовать можно 1 раз )

    Другие торренты по теме:

  • Чучело (1983) DVDRip [H.264] (2 серии) [Реставрация - Крупный план]


    • Комментарии (0):

      Информация

      Информация

        Посетители, находящиеся в группе Гости, не могут оставлять комментарии в данной новости.

        ↓ Меню




        ↓ Опрос

        Вы добавили сайт в закладки?
        Да
        Нет


        Top 10 за месяц (Мультфильмы)