.
Авторизация | Регистрация

Торрент скачать бесплатно

  • support: webmaster@btracker.club
» » Весёлые фантазии / Fun and Fancy Free (1947) BDRip [H.264 / 720p] торрент скачать бесплатно


    Весёлые фантазии / Fun and Fancy Free (1947) BDRip [H.264 / 720p] торрент скачать бесплатно

    Дата: 30-12-2018, 16:13 | .torrent скачали: 2

    Весёлые фантазии / Fun and Fancy Free (1947) BDRip [H.264 / 720p]Производство: Walt Disney Pictures
    Жанр: Рисованная анимация, Приключения, Сказка, Музыкальный
    Режиссер: Джек Кинни/Jack Kinney, Гамильтон Ласки/Hamilton Luske

    Описание

    Полнометражный анимационный шедевр, очаровывающий и невероятно интересный своей историей создания. Это последний мультипликационный фильм, где слышен голос великолепного сказочника Уолта Диснея, озвучившего символа студии – Микки Мауса, и единственный фильм, где встречаются все четыре главных персонажа студии: великолепный Микки Маус, ворчливый Дональд Дак, забавный Гуфи и мудрый рассказчик Сверчок Джимини. Следуя классической традиции студии Диснея, мультипликаторы создали увлекательную историю Бонго про циркового медведя, мечтающего убежать из цирка, и жить в лесу вместе со своими друзьями и возлюбленной. А также предложили свою версию известной сказки Джек и Бобовый Росток – Микки и Бобовый Росток. Две чудесные истории появились на свет, благодаря рассказчику Сверчку Джимини и мастерству работников студии, сумевших создать незабываемые персонажи, наполнить картину прекрасной музыкой и невероятными приключениями.

    Возраст: 0+ (для любой зрительской аудитории)
    Рейтинг MPAA: G (нет возрастных ограничений)
    Продолжительность: 01: 12: 48
    Качество видео: BDRip
    Перевод: Дублированный, многоголосый закадровый, одноголосый авторский
    Субтитры: английские (полные)
    Видео: AVC/H.264, 960х720, ~5 Mbps
    Аудио #1: AC3, 2 ch, 192 kbps - русский (дубляж, Невафильм)
    Аудио #2: AC3, 2 ch, 192 kbps - русский (MVO, Selena International)
    Аудио #3: AC3, 6 ch, 640 kbps - русский (AVO, Ю. Живов)
    Аудио #4: AC3, 6 ch, 640 kbps - английский

    x264 info: frame I: 723 Avg QP: 14.40 size: 129421
    x264 info: frame P: 29246 Avg QP: 16.53 size: 53107
    x264 info: frame B: 74768 Avg QP: 18.32 size: 14487
    Unique ID : 338781657442818897397500014670739279717 (0xFEDEF94F66E0EC407EAF2EE2869A0F65)
    Complete name : D: TempNNMFun and Fancy Free.720p.mkv
    Format : Matroska
    Format version : Version 4/Version 2
    File size : 3.39 GiB
    Duration : 1h 12mn
    Overall bit rate : 6 672 Kbps
    Movie name : Fun and Fancy Free.1947.BDRemux 1080p
    Writing library : Lavf57.71.100
    Video
    ID : 1
    Format : AVC
    Format/Info : Advanced Video Codec
    Format profile : High@L4.1
    Format settings, CABAC : Yes
    Format settings, ReFrames : 9 frames
    Codec ID : V_MPEG4/ISO/AVC
    Duration : 1h 12mn
    Bit rate : 5 000 Kbps
    Width : 960 pixels
    Height : 720 pixels
    Display aspect ratio : 4: 3
    Frame rate mode : Constant
    Frame rate : 23.976 fps
    Color space : YUV
    Chroma subsampling : 4: 2: 0
    Bit depth : 8 bits
    Scan type : Progressive
    Bits/(Pixel*Frame) : 0.302
    Stream size : 2.48 GiB (73%)
    Writing library : x264 core 157 r2935M 545de2f
    Encoding settings : cabac=1/ref=9/deblock=1: -3: -3/analyse=0x3: 0x133/me=umh/subme=9/psy=1/psy_rd=1.05: 0.10/mixed_ref=1/me_range=24/chroma_me=1/trellis=2/8x8dct=1/cqm=0/deadzone=21, 11/fast_pskip=0/chroma_qp_offset=-3/threads=5/lookahead_threads=1/sliced_threads=0/nr=0/decimate=0/interlaced=0/bluray_compat=0/constrained_intra=0/bframes=9/b_pyramid=2/b_adapt=2/b_bias=0/direct=1/weightb=1/open_gop=0/weightp=2/keyint=240/keyint_min=24/scenecut=40/intra_refresh=0/rc=2pass/mbtree=0/bitrate=5000/ratetol=1.0/qcomp=0.70/qpmin=3/qpmax=69/qpstep=4/cplxblur=20.0/qblur=0.5/ip_ratio=1.40/pb_ratio=1.30/aq=2: 1.00
    Language : English
    Default : Yes
    Forced : No
    Audio #1
    ID : 2
    Format : AC-3
    Format/Info : Audio Coding 3
    Mode extension : CM (complete main)
    Format settings, Endianness : Big
    Codec ID : A_AC3
    Duration : 1h 12mn
    Bit rate mode : Constant
    Bit rate : 192 Kbps
    Channel(s) : 2 channels
    Channel positions : Front: L R
    Sampling rate : 48.0 KHz
    Bit depth : 16 bits
    Compression mode : Lossy
    Stream size : 100.0 MiB (3%)
    Title : DUB (Невафильм, 2005г.)
    Language : Russian
    Default : Yes
    Forced : No
    Audio #2
    ID : 3
    Format : AC-3
    Format/Info : Audio Coding 3
    Mode extension : CM (complete main)
    Format settings, Endianness : Big
    Codec ID : A_AC3
    Duration : 1h 12mn
    Bit rate mode : Constant
    Bit rate : 192 Kbps
    Channel(s) : 2 channels
    Channel positions : Front: L R
    Sampling rate : 48.0 KHz
    Bit depth : 16 bits
    Compression mode : Lossy
    Stream size : 100.0 MiB (3%)
    Title : MVO (Selena International СТС)
    Language : Russian
    Default : No
    Forced : No
    Audio #3
    ID : 4
    Format : AC-3
    Format/Info : Audio Coding 3
    Mode extension : CM (complete main)
    Format settings, Endianness : Big
    Codec ID : A_AC3
    Duration : 1h 12mn
    Bit rate mode : Constant
    Bit rate : 640 Kbps
    Channel(s) : 6 channels
    Channel positions : Front: L C R, Side: L R, LFE
    Sampling rate : 48.0 KHz
    Bit depth : 16 bits
    Compression mode : Lossy
    Stream size : 333 MiB (10%)
    Title : AVO (Ю. Живов)
    Language : Russian
    Default : No
    Forced : No
    Audio #4
    ID : 5
    Format : AC-3
    Format/Info : Audio Coding 3
    Mode extension : CM (complete main)
    Format settings, Endianness : Big
    Codec ID : A_AC3
    Duration : 1h 12mn
    Bit rate mode : Constant
    Bit rate : 640 Kbps
    Channel(s) : 6 channels
    Channel positions : Front: L C R, Side: L R, LFE
    Sampling rate : 48.0 KHz
    Bit depth : 16 bits
    Compression mode : Lossy
    Stream size : 333 MiB (10%)
    Title : ENG
    Language : English
    Default : No
    Forced : No
    Text
    ID : 6
    Format : UTF-8
    Codec ID : S_TEXT/UTF8
    Codec ID/Info : UTF-8 Plain Text
    Title : Eng Sub
    Language : English
    Default : Yes
    Forced : No

    Скриншоты для ознакомления



    Все одноименные релизы в Клубе
    Время раздачи: 24/7 (до появления первых 3-5 скачавших)


    Онлайн видео Весёлые фантазии



    Весёлые фантазии/Fun and Fancy Free (1947) BDRip [H.264/720p]
    Рейтинг →
     (голосов: 1, оценка 3/5, голосовать можно 1 раз )

    Другие торренты по теме:

  • Весёлые ребята) (2014) WEB-DL [H.264 / 720p-LQ]
  • Весёлые ребята) (2014) WEB-DLRip
  • Весёлые ребята) (2014) WEB-DL [720p] ATV
  • Весёлые ребята (2014) DVDRip скачать через торрент бесплатно
  • Весёлые ребята (2014) DVD5 скачать через торрент бесплатно
  • Е. В. Лаврентьева | Весёлые пословицы и поговорки (2013) [PDF]
  • Весёлые ребята - Музыкальный глобус (2008) [APE|Lossless]<Pop / retro> скачать через торрент бесплатно
  • Весёлые ребята) (2014) HDTV [1080i]


    • Комментарии (0):

      Информация

      Информация

        Посетители, находящиеся в группе Гости, не могут оставлять комментарии в данной новости.

        ↓ Меню




        ↓ Опрос

        Вы добавили сайт в закладки?
        Да
        Нет


        Top 10 за месяц (Мультфильмы)

        Оранжевая корова (2018-2019) WEB-DLRip [H.264 / 720p-LQ] (сезон 1, серии 1-3 из 20)

        (скачиваний: 278)
        Три кота (2018) WEB-DLRip [H.264 / 720p-LQ] (сезон 3, серии 105-106 из 156)

        (скачиваний: 161)
        Рик и Морти / Rick and Morty (2015) WEB-DL [H.264 / 1080p] (Сезон 2, серии 1-10 из 10) Сыендук [EN / RU Sub] скачать через торрент бесплатно

        (скачиваний: 155)
        Лунтик и его друзья (2013-2017) WEB-DLRip 7,8,9 сезон (390-488 серии)[Обновляемая]

        (скачиваний: 96)
        Роботы-поезда / Robot Trains (2017) WEB-DL [H.264 / 720p-LQ] (1 сезон, 32 серий из 32)

        (скачиваний: 94)
        Футурама / Futurama (1999-2013) DVDRip (7 Сезонов, 140 серии) скачать через торрент бесплатно

        (скачиваний: 89)
        МиниФорс X / MiniForce X (2019) WEB-DLRip [H.264 / 720p-LQ] (сезон 2, серии 1-26 из 52) [Обновляемая]

        (скачиваний: 82)
        Космический рубеж / Final Space (2018) WEB-DLRip [H.264 / 1080p] (Сезон 1, Серии 10 из 10) Кубик в Кубе

        (скачиваний: 73)
        Расти-механик / Rusty Rivets (2016) WEB-DL [H.264] (Серии 1-23)

        (скачиваний: 67)
        МУЛЬТ в кино. Выпуск 66: Новогодние каникулы (2018) WEB-DLRip [H.264 / 720p-LQ]

        (скачиваний: 63)