.
Авторизация | Регистрация
Хочешь лучшие торренты? Добавь свой email!
Добавить

Торрент скачать бесплатно

  • support: webmaster@btracker.club
» » Приключения Икабода и мистера Тоада / The Adventures of Ichabod and Mr. Toad (1949) BDRip [H.264 / 720p] торрент скачать бесплатно


    Приключения Икабода и мистера Тоада / The Adventures of Ichabod and Mr. Toad (1949) BDRip [H.264 / 720p] торрент скачать бесплатно

    Опубликовал: fregat | Дата: 30-12-2018, 16:13 | .torrent скачали: 0

    Приключения Икабода и мистера Тоада / The Adventures of Ichabod and Mr. Toad (1949) BDRip [H.264 / 720p]Производство: Walt Disney Pictures
    Жанр: Рисованная анимация, Приключения, Комедия, Фентези
    Режиссер: Джеймс Алгар/James Algar, Клайд Джероними/Clyde Geronimi, Джек Кинни/Jack Kinney

    Описание

    Шедевр мультипликации — Студия Уолта Диснея (Walt Disney Pictures) под одной обложкой в едином живописном стиле поместила две сказочные истории по классическим произведениям:
    1. Ветер в ивах (The Wind in the Willows) — об одном из самых удивительных и забавных персонажей английской литературы, о жабе Джее Тадеуше Тоаде, а проще — о мистере Тоаде, потомственном дворянине (эсквайре), горделивом владельце примечательного родового замка Тоад-холла, неутомимом искателе приключений и весьма, ну просто весьма-весьма увлекающейся натуре, из-за которой он постоянно попадает в разные передряги, из которых ему неизменно помогаю выпутываться три его верных — и очень разнохарактерных — друга: барсук Мак-Бэджер, водяная крыса Рэт и крот Моул.
    2. Легенда Сонной Лощины (The Legend of Sleepy Hollow) — это ещё одна комическая вариация бродячего сюжета о всаднике без головы, пересказ местного предания о том, как давным-давно, когда Нью-Йорк был ещё заштатным торговым городишкой, в одной глухой деревушке близ берегов Гудзона легенда о местном кошмаре помогла проучить надоедливого долговязого ухажёра — зарвавшегося школьного учителя по имени Икабод.

    Возраст: 6+ (зрителям, достигшим 6 лет)
    Рейтинг MPAA: G (нет возрастных ограничений)
    Продолжительность: 01: 08: 05
    Качество видео: BDRip
    Перевод: Дублированный, многоголосый закадровый, одноголосый авторский
    Субтитры: русские (форс., полные), английские (полные)
    Видео: AVC/H.264, 960x720, ~5 Mbps
    Аудио #1: AC3, 2 ch, 192 kbps - русский (дубляж, Пифагор)
    Аудио #2: AC3, 5 ch, 384 kbps - русский (MVO, DVD-Магия)
    Аудио #3: AC3, 6 ch, 384 kbps - русский (АVO, Ю. Живов)
    Аудио #4: AC3, 6 ch, 640 kbps - английский

    x264 info: frame I: 758 Avg QP: 17.09 size: 119455
    x264 info: frame P: 27259 Avg QP: 18.43 size: 49118
    x264 info: frame B: 69928 Avg QP: 20.10 size: 16079
    Unique ID : 34799397723894485788580425284928447195 (0x1A2E1EC63BDF7A5053BBB90D69C0A2DB)
    Complete name : D: TempNNMПриключения Икабода и мистера Тоада 720p.mkv
    Format : Matroska
    Format version : Version 4/Version 2
    File size : 3.14 GiB
    Duration : 1h 8mn
    Overall bit rate : 6 610 Kbps
    Movie name : The Adventures of Ichabod and Mr. Toad.1949.BDRemux 1080p
    Writing library : Lavf57.71.100
    Video
    ID : 1
    Format : AVC
    Format/Info : Advanced Video Codec
    Format profile : High@L4.1
    Format settings, CABAC : Yes
    Format settings, ReFrames : 4 frames
    Codec ID : V_MPEG4/ISO/AVC
    Duration : 1h 8mn
    Bit rate : 5 000 Kbps
    Width : 960 pixels
    Height : 720 pixels
    Display aspect ratio : 4: 3
    Frame rate mode : Constant
    Frame rate : 23.976 fps
    Color space : YUV
    Chroma subsampling : 4: 2: 0
    Bit depth : 8 bits
    Scan type : Progressive
    Bits/(Pixel*Frame) : 0.302
    Stream size : 2.32 GiB (74%)
    Writing library : x264 core 157 r2935M 545de2f
    Encoding settings : cabac=1/ref=4/deblock=1: -3: -3/analyse=0x3: 0x133/me=umh/subme=9/psy=1/psy_rd=1.05: 0.10/mixed_ref=1/me_range=24/chroma_me=1/trellis=2/8x8dct=1/cqm=0/deadzone=21, 11/fast_pskip=0/chroma_qp_offset=-3/threads=5/lookahead_threads=1/sliced_threads=0/nr=0/decimate=0/interlaced=0/bluray_compat=0/constrained_intra=0/bframes=6/b_pyramid=2/b_adapt=2/b_bias=0/direct=1/weightb=1/open_gop=0/weightp=2/keyint=240/keyint_min=24/scenecut=40/intra_refresh=0/rc=2pass/mbtree=0/bitrate=5000/ratetol=1.0/qcomp=0.70/qpmin=3/qpmax=69/qpstep=4/cplxblur=20.0/qblur=0.5/ip_ratio=1.40/pb_ratio=1.30/aq=2: 1.00
    Language : English
    Default : Yes
    Forced : No
    Audio #1
    ID : 2
    Format : AC-3
    Format/Info : Audio Coding 3
    Mode extension : CM (complete main)
    Format settings, Endianness : Big
    Codec ID : A_AC3
    Duration : 1h 8mn
    Bit rate mode : Constant
    Bit rate : 192 Kbps
    Channel(s) : 2 channels
    Channel positions : Front: L R
    Sampling rate : 48.0 KHz
    Bit depth : 16 bits
    Compression mode : Lossy
    Stream size : 93.5 MiB (3%)
    Title : DUB
    Language : Russian
    Default : Yes
    Forced : No
    Audio #2
    ID : 3
    Format : AC-3
    Format/Info : Audio Coding 3
    Mode extension : CM (complete main)
    Format settings, Endianness : Big
    Codec ID : A_AC3
    Duration : 1h 8mn
    Bit rate mode : Constant
    Bit rate : 384 Kbps
    Channel(s) : 5 channels
    Channel positions : Front: L C R, Side: L R
    Sampling rate : 48.0 KHz
    Bit depth : 16 bits
    Compression mode : Lossy
    Stream size : 187 MiB (6%)
    Title : MVO (DVD-Магия)
    Language : Russian
    Default : No
    Forced : No
    Audio #3
    ID : 4
    Format : AC-3
    Format/Info : Audio Coding 3
    Mode extension : CM (complete main)
    Format settings, Endianness : Big
    Codec ID : A_AC3
    Duration : 1h 8mn
    Bit rate mode : Constant
    Bit rate : 384 Kbps
    Channel(s) : 6 channels
    Channel positions : Front: L C R, Side: L R, LFE
    Sampling rate : 48.0 KHz
    Bit depth : 16 bits
    Compression mode : Lossy
    Stream size : 187 MiB (6%)
    Title : AVO (Ю. Живов)
    Language : Russian
    Default : No
    Forced : No
    Audio #4
    ID : 5
    Format : AC-3
    Format/Info : Audio Coding 3
    Mode extension : CM (complete main)
    Format settings, Endianness : Big
    Codec ID : A_AC3
    Duration : 1h 8mn
    Bit rate mode : Constant
    Bit rate : 640 Kbps
    Channel(s) : 6 channels
    Channel positions : Front: L C R, Side: L R, LFE
    Sampling rate : 48.0 KHz
    Bit depth : 16 bits
    Compression mode : Lossy
    Stream size : 312 MiB (10%)
    Title : ENG
    Language : English
    Default : No
    Forced : No
    Text #1
    ID : 6
    Format : UTF-8
    Codec ID : S_TEXT/UTF8
    Codec ID/Info : UTF-8 Plain Text
    Title : Rus Sub (forced)
    Language : Russian
    Default : Yes
    Forced : No
    Text #2
    ID : 7
    Format : UTF-8
    Codec ID : S_TEXT/UTF8
    Codec ID/Info : UTF-8 Plain Text
    Title : Rus Sub (Пифагор)
    Language : Russian
    Default : No
    Forced : No
    Text #3
    ID : 8
    Format : UTF-8
    Codec ID : S_TEXT/UTF8
    Codec ID/Info : UTF-8 Plain Text
    Title : Eng Sub
    Language : English
    Default : No
    Forced : No

    Скриншоты для ознакомления



    Все одноименные релизы в Клубе
    Время раздачи: 24/7 (до появления первых 3-5 скачавших)


    Онлайн видео Приключения Икабода и мистера Тоада



    Приключения Икабода и мистера Тоада/The Adventures of Ichabod and Mr. Toad (1949) BDRip [H.264/720p]
    Рейтинг →
     (голосов: 1, оценка 5/5, голосовать можно 1 раз )

    Другие торренты по теме:

  • Peter Pan no Bouken | Adventures of Peter Pan | Приключения Питера Пена [1989, TV, 41] DVDRip 480 raw
  • Приключения есть приключения / Laventure, cest laventure (1972) DVDRip [H.264] скачать через торрент бесплатно
  • Приключения принца Флоризеля / Клуб самоубийц или приключения титулованной особы (1979) DVBRip [H.264]
  • Приключения принца Флоризеля / Клуб самоубийц, или приключения титулованной особы (1979) DVBRip [H.264]
  • Приключения есть приключения / Laventure, cest laventure (1972) BDRip [H.264 / 720p]
  • Невероятные приключения итальянцев в России (1973) DVDRip [H.264]
  • Смеханические приключения Тарапуньки и Штепселя (1971) DVD5
  • Приключения отважных кузенов / The Country Mouse and the City Mouse Adventures (1997) SATRip (Сезон 1-3, 51 серия из 52)


    • Комментарии (0):

      Информация

      Информация

        Посетители, находящиеся в группе Гости, не могут оставлять комментарии в данной новости.

        ↓ Меню




        ↓ Опрос

        Вы добавили сайт в закладки?
        Да
        Нет


        Top 10 за месяц (Мультфильмы)