.
Авторизация | Регистрация

Торрент скачать бесплатно

  • support: webmaster@btracker.club
» » Маленькая ведьма / Die kleine Hexe (2018) WEBRip [H.264 / 720p-LQ] [MVO] торрент скачать бесплатно


    Маленькая ведьма / Die kleine Hexe (2018) WEBRip [H.264 / 720p-LQ] [MVO] торрент скачать бесплатно

    Дата: 30-12-2018, 16:13 | .torrent скачали: 2

    Маленькая ведьма / Die kleine Hexe (2018) WEBRip [H.264 / 720p-LQ] [MVO]Производство: Швейцария, Германия/Breaking Glass Pictures, Studiocanal
    Жанр: Комедия, Драма, Фэнтези, Семейный
    Режиссер: Мике Шёрер
    Продюсер: Якоб Клауссен, Ульрика Пуц, Лукас Хоби

    Актеры
    Каролина Херфурт, Аксель Праль, Сюзанна фон Борсоди, Каролин Списс, Эвелин Холл, Тереза Аффолтер, Ангелика Бёттигер и др.

    Описание

    С самого начала зрители знакомятся с 127-летней ведьмой, которая в своем волшебном мире считается еще очень маленькой и юной. По этой причине ей не разрешено принять участие в ежегодном шабаше, который организуется в Вальпургиеву ночь. Несмотря ни на что, ей очень хочется стать хорошей и профессиональной ведьмой. Это становится причиной многих проблем для остальных членов волшебного мира колдунов...

    Дата мировой премьеры: 1 февраля 2018
    Продолжительность: 01: 43: 03
    Качество видео: WEBRip
    Перевод: Многоголосый закадровый, профессиональный (HDRezka)
    Субтитры: Английские (SDH)
    Видео: AVC/H.264, 1280x544, ~6000 Kbps
    Аудио 1: AC3, 2 ch, 192 Kbps | русский
    Аудио 2: EAC3, 6 ch, 256 Kbps | английский

    Общее
    Уникальный идентификатор : 163394238475718689810022840231362122951 (0x7AEC95EDF31C7801367232E519F554C7)
    Полное имя : D: FILMЬlThe Little Witch.2018.mkv
    Формат : Matroska
    Версия формата : Version 4
    Размер файла : 4, 56 Гбайт
    Продолжительность : 1 ч. 43 м.
    Общий поток : 6331 Кбит/сек
    Дата кодирования : UTC 2018-12-28 15: 33: 19
    Программа кодирования : mkvmerge v29.0.0 (\'Like It Or Not\') 64-bit
    Библиотека кодирования : libebml v1.3.6 + libmatroska v1.4.9
    Видео
    Идентификатор : 1
    Формат : AVC
    Формат/Информация : Advanced Video Codec
    Профиль формата : High@L3.1
    Настройки формата : CABAC/4 Ref Frames
    Параметр CABAC формата : Да
    Параметр RefFrames формата : 4 кадра
    Параметр GOP формата : M=4, N=48
    Идентификатор кодека : V_MPEG4/ISO/AVC
    Продолжительность : 1 ч. 43 м.
    Вид битрейта : Постоянный
    Битрейт : 6000 Кбит/сек
    Ширина : 1280 пикселей
    Высота : 544 пикселя
    Соотношение сторон : 2, 35: 1
    Режим частоты кадров : Постоянный
    Частота кадров : 24, 000 кадра/сек
    Цветовое пространство : YUV
    Субдискретизация насыщенности : 4: 2: 0
    Битовая глубина : 8 бит
    Тип развёртки : Прогрессивная
    Бит/(Пиксели*Кадры) : 0.359
    Размер потока : 4, 23 Гбайт (93%)
    Default : Да
    Forced : Нет
    Цветовой диапазон : Limited
    Основные цвета : BT.709
    Характеристики трансфера : BT.709
    Коэффициенты матрицы : BT.709
    Аудио #1
    Идентификатор : 2
    Формат : AC-3
    Формат/Информация : Audio Coding 3
    Коммерческое название : Dolby Digital
    Идентификатор кодека : A_AC3
    Продолжительность : 1 ч. 43 м.
    Вид битрейта : Постоянный
    Битрейт : 192 Кбит/сек
    Каналы : 2 канала
    Channel layout : L R
    Частота : 48, 0 КГц
    Частота кадров : 31, 250 кадров/сек (1536 SPF)
    Битовая глубина : 16 бит
    Метод сжатия : С потерями
    Размер потока : 142 Мбайт (3%)
    Заголовок : Русский
    Язык : Russian
    ServiceKind/String : Complete Main
    Default : Да
    Forced : Нет
    Аудио #2
    Идентификатор : 3
    Формат : E-AC-3
    Формат/Информация : Enhanced AC-3
    Коммерческое название : Dolby Digital Plus
    Идентификатор кодека : A_EAC3
    Продолжительность : 1 ч. 43 м.
    Вид битрейта : Постоянный
    Битрейт : 256 Кбит/сек
    Каналы : 6 каналов
    Channel layout : L R C LFE Ls Rs
    Частота : 48, 0 КГц
    Частота кадров : 31, 250 кадров/сек (1536 SPF)
    Метод сжатия : С потерями
    Размер потока : 189 Мбайт (4%)
    Заголовок : English
    Язык : English
    ServiceKind/String : Complete Main
    Default : Нет
    Forced : Нет
    Текст
    Идентификатор : 4
    Формат : UTF-8
    Идентификатор кодека : S_TEXT/UTF8
    Идентификатор кодека/Информация : UTF-8 Plain Text
    Продолжительность : 1 ч. 42 м.
    Битрейт : 56 бит/сек
    ElementCount : 1405
    Размер потока : 42, 3 Кбайт (0%)
    Заголовок : English SDH
    Язык : English
    Default : Нет
    Forced : Нет

    Скриншоты для ознакомления



    Все одноименные релизы в Клубе
    Время раздачи: с 09: 00 до 23: 30 (до появления первых 3-5 скачавших)


    Онлайн видео Маленькая ведьма



    Маленькая ведьма/Die kleine Hexe (2018) WEBRip [H.264/720p-LQ] [MVO]
    Рейтинг →
     (голосов: 1, оценка 3/5, голосовать можно 1 раз )

    Другие торренты по теме:

  • Сабрина - маленькая ведьма / Sabrina, the Teenage Witch (2003) DVDRip (сезон 7, серии 1-22 из 22) (СТС) скачать через торрент бесплатно
  • Маленькая ведьма / Die kleine Hexe (2018) HDRezka studio, AC3 5.1 [hand made]
  • Маленькая ведьма / Die kleine Hexe (2018) BDRip [H.264 / 720p] [MVO]
  • Маленькая ведьма / Die kleine Hexe (2018) BDRemux [H.264 / 1080p] [MVO]
  • Маленькая ведьма / Die kleine Hexe (2018) BDRemux [H.264 / 1080p] [MVO]


    • Комментарии (0):

      Информация

      Информация

        Посетители, находящиеся в группе Гости, не могут оставлять комментарии в данной новости.

        ↓ Меню




        ↓ Опрос

        Вы добавили сайт в закладки?
        Да
        Нет


        Top 10 за месяц (Мультфильмы)

        Оранжевая корова (2018-2019) WEB-DLRip [H.264 / 720p-LQ] (сезон 1, серии 1-3 из 20)

        (скачиваний: 278)
        Три кота (2018) WEB-DLRip [H.264 / 720p-LQ] (сезон 3, серии 105-106 из 156)

        (скачиваний: 161)
        Рик и Морти / Rick and Morty (2015) WEB-DL [H.264 / 1080p] (Сезон 2, серии 1-10 из 10) Сыендук [EN / RU Sub] скачать через торрент бесплатно

        (скачиваний: 155)
        Лунтик и его друзья (2013-2017) WEB-DLRip 7,8,9 сезон (390-488 серии)[Обновляемая]

        (скачиваний: 96)
        Роботы-поезда / Robot Trains (2017) WEB-DL [H.264 / 720p-LQ] (1 сезон, 32 серий из 32)

        (скачиваний: 94)
        Футурама / Futurama (1999-2013) DVDRip (7 Сезонов, 140 серии) скачать через торрент бесплатно

        (скачиваний: 89)
        МиниФорс X / MiniForce X (2019) WEB-DLRip [H.264 / 720p-LQ] (сезон 2, серии 1-26 из 52) [Обновляемая]

        (скачиваний: 82)
        Космический рубеж / Final Space (2018) WEB-DLRip [H.264 / 1080p] (Сезон 1, Серии 10 из 10) Кубик в Кубе

        (скачиваний: 73)
        Расти-механик / Rusty Rivets (2016) WEB-DL [H.264] (Серии 1-23)

        (скачиваний: 67)
        МУЛЬТ в кино. Выпуск 66: Новогодние каникулы (2018) WEB-DLRip [H.264 / 720p-LQ]

        (скачиваний: 63)