.
Авторизация | Регистрация
Хочешь лучшие торренты? Добавь свой email!
Добавить

Торрент скачать бесплатно

  • support: webmaster@btracker.club
» » Как прогулять школу с пользой / Lecole buissonniere (2017) BDRip [H.264 / 1080p] торрент скачать бесплатно


    Как прогулять школу с пользой / Lecole buissonniere (2017) BDRip [H.264 / 1080p] торрент скачать бесплатно

    Опубликовал: fregat | Дата: 30-12-2018, 16:13 | .torrent скачали: 0

    Как прогулять школу с пользой / Lecole buissonniere (2017) BDRip [H.264 / 1080p]Производство: Франция, Radar Films, StudioCanal, Canal+
    Жанр: Драма, Комедия, Семейный
    Режиссер: Николя Ванье

    Актеры
    Франсуа Клюзе, Жан Скандел, Эрик Элмоснино, Франсуа Берлеан, Валери Карсенти, Томас Дюран, Илона Кабрера, Фридерик Сорель, Урбен Канселье, Мюриэль Хует де Ауней

    Описание

    Вслед за городским мальчиком Полем зрителям предстоит узнать то, чему в школе не учат. А именно — как жить в реальном мире. По крайней мере, если это мир леса. Здесь есть хозяин — мрачный граф, есть власть — добродушный, но строгий лесничий Борель, и есть браконьер Тотош — человек, решивший быть вне закона, да и вообще подозрительный и неприятный тип.
    Чью сторону выберет Поль: добропорядочного лесничего Бореля или браконьера Тотоша? А может, юный сорванец и вовсе станет лучшим другом надменному графу?

    Дата мировой премьеры: 25 августа 2017
    Дата российской премьеры: 25 октября 2018, Пионер
    Продолжительность: 01: 55: 40
    Качество видео: BDRip
    Перевод: Дублированный (iTunes )
    Субтитры: Русские, французские
    Видео: AVC/H.264, 1920x800, ~10, 2 Mbps
    Аудио #1: AC3, 6 ch, 384 Kbps | Русский (DUB, iTunes)
    Аудио #2: AC3, 6 ch, 448 Kbps | Французский

    Общее
    Уникальный идентификатор : 252499883917951901799579171219411825977 (0xBDF5B56FEE73D5EB8EF0BD6CA667F539)
    Полное имя : C: UsersUserDesktopNNMClubLecolebuissonniereBDRip1080p.mkv
    Формат : Matroska
    Версия формата : Version 4
    Размер файла : 8, 88 Гбайт
    Продолжительность : 1 ч. 55 м.
    Общий поток : 11, 0 Мбит/сек
    Дата кодирования : UTC 2018-12-28 09: 15: 26
    Программа кодирования : mkvmerge v9.5.0 (\'Quiet Fire\') 64bit
    Библиотека кодирования : libebml v1.3.4 + libmatroska v1.4.5
    Видео
    Идентификатор : 1
    Формат : AVC
    Формат/Информация : Advanced Video Codec
    Профиль формата : High@L4.1
    Настройки формата : CABAC/5 Ref Frames
    Параметр CABAC формата : Да
    Параметр RefFrames формата : 5 кадров
    Идентификатор кодека : V_MPEG4/ISO/AVC
    Продолжительность : 1 ч. 55 м.
    Битрейт : 10, 2 Мбит/сек
    Ширина : 1920 пикселей
    Высота : 800 пикселей
    Соотношение сторон : 2, 40: 1
    Режим частоты кадров : Постоянный
    Частота кадров : 24, 000 кадра/сек
    Цветовое пространство : YUV
    Субдискретизация насыщенности : 4: 2: 0
    Битовая глубина : 8 бит
    Тип развёртки : Прогрессивная
    Бит/(Пиксели*Кадры) : 0.276
    Размер потока : 8, 03 Гбайт (90%)
    Библиотека кодирования : x264 core 157 r2935M 545de2f
    Настройки программы : cabac=1/ref=5/deblock=1: -1: -1/analyse=0x3: 0x113/me=umh/subme=11/psy=1/psy_rd=1.00: 0.00/mixed_ref=1/me_range=48/chroma_me=1/trellis=2/8x8dct=1/cqm=0/deadzone=21, 11/fast_pskip=0/chroma_qp_offset=-2/threads=9/lookahead_threads=2/sliced_threads=0/nr=0/decimate=0/interlaced=0/bluray_compat=0/constrained_intra=0/bframes=12/b_pyramid=2/b_adapt=2/b_bias=0/direct=3/weightb=1/open_gop=0/weightp=2/keyint=240/keyint_min=24/scenecut=40/intra_refresh=0/rc_lookahead=120/rc=2pass/mbtree=0/bitrate=10176/ratetol=1.0/qcomp=0.70/qpmin=0/qpmax=69/qpstep=4/cplxblur=20.0/qblur=0.5/vbv_maxrate=50000/vbv_bufsize=62500/nal_hrd=none/filler=0/ip_ratio=1.40/pb_ratio=1.30/aq=3: 0.80
    Default : Да
    Forced : Нет
    Аудио #1
    Идентификатор : 2
    Формат : AC-3
    Формат/Информация : Audio Coding 3
    Коммерческое название : Dolby Digital
    Идентификатор кодека : A_AC3
    Продолжительность : 1 ч. 55 м.
    Вид битрейта : Постоянный
    Битрейт : 384 Кбит/сек
    Каналы : 6 каналов
    Channel layout : L R C LFE Ls Rs
    Частота : 48, 0 КГц
    Частота кадров : 31, 250 кадров/сек (1536 SPF)
    Битовая глубина : 16 бит
    Метод сжатия : С потерями
    Размер потока : 317 Мбайт (3%)
    Язык : Russian
    ServiceKind/String : Complete Main
    Default : Да
    Forced : Нет
    Аудио #2
    Идентификатор : 3
    Формат : AC-3
    Формат/Информация : Audio Coding 3
    Коммерческое название : Dolby Digital
    Идентификатор кодека : A_AC3
    Продолжительность : 1 ч. 55 м.
    Вид битрейта : Постоянный
    Битрейт : 448 Кбит/сек
    Каналы : 6 каналов
    Channel layout : L R C LFE Ls Rs
    Частота : 48, 0 КГц
    Частота кадров : 31, 250 кадров/сек (1536 SPF)
    Битовая глубина : 16 бит
    Метод сжатия : С потерями
    Размер потока : 370 Мбайт (4%)
    Язык : French
    ServiceKind/String : Complete Main
    Default : Нет
    Forced : Нет
    Текст #1
    Идентификатор : 4
    Формат : UTF-8
    Идентификатор кодека : S_TEXT/UTF8
    Идентификатор кодека/Информация : UTF-8 Plain Text
    Язык : Russian
    Default : Нет
    Forced : Нет
    Текст #2
    Идентификатор : 5
    Формат : UTF-8
    Идентификатор кодека : S_TEXT/UTF8
    Идентификатор кодека/Информация : UTF-8 Plain Text
    Язык : French
    Default : Нет
    Forced : Нет
    Меню
    00: 00: 00.000 : en: Chapter 1
    00: 04: 46.083 : en: Chapter 2
    00: 11: 04.958 : en: Chapter 3
    00: 20: 31.375 : en: Chapter 4
    00: 33: 12.125 : en: Chapter 5
    00: 43: 53.000 : en: Chapter 6
    00: 53: 16.625 : en: Chapter 7
    01: 02: 40.000 : en: Chapter 8
    01: 11: 00.750 : en: Chapter 9
    01: 24: 22.000 : en: Chapter 10
    01: 35: 33.458 : en: Chapter 11
    01: 45: 02.708 : en: Chapter 12

    Скриншоты для ознакомления



    Все одноименные релизы в Клубе
    Время раздачи: 24/7 (до появления первых 3-5 скачавших)


    Онлайн видео Как прогулять школу с пользой



    Как прогулять школу с пользой/Lecole buissonniere (2017) BDRip [H.264/1080p]
    Рейтинг →
     (голосов: 1, оценка 4/5, голосовать можно 1 раз )

    Другие торренты по теме:

  • Как прогулять школу с пользой / Lecole buissonniere (2017) BDRip [H.264]
  • Как прогулять школу с пользой / Lecole buissonniere (2017) BDRip


    • Комментарии (0):

      Информация

      Информация

        Посетители, находящиеся в группе Гости, не могут оставлять комментарии в данной новости.

        ↓ Меню




        ↓ Опрос

        Вы добавили сайт в закладки?
        Да
        Нет


        Top 10 за месяц (Мультфильмы)