.
Авторизация | Регистрация
Хочешь лучшие торренты? Добавь свой email!
Добавить

Торрент скачать бесплатно

  • support: webmaster@btracker.club
» » Как прогулять школу с пользой / Lecole buissonniere (2017) BDRip торрент скачать бесплатно


    Как прогулять школу с пользой / Lecole buissonniere (2017) BDRip торрент скачать бесплатно

    Опубликовал: fregat | Дата: 30-12-2018, 16:13 | .torrent скачали: 1

    Как прогулять школу с пользой / Lecole buissonniere (2017) BDRipПроизводство: Франция, Radar Films, StudioCanal, Canal+
    Жанр: Драма, Комедия, Семейный
    Режиссер: Николя Ванье

    Актеры
    Франсуа Клюзе, Жан Скандел, Эрик Элмоснино, Франсуа Берлеан, Валери Карсенти, Томас Дюран, Илона Кабрера, Фридерик Сорель, Урбен Канселье, Мюриэль Хует де Ауней

    Описание

    Вслед за городским мальчиком Полем зрителям предстоит узнать то, чему в школе не учат. А именно — как жить в реальном мире. По крайней мере, если это мир леса. Здесь есть хозяин — мрачный граф, есть власть — добродушный, но строгий лесничий Борель, и есть браконьер Тотош — человек, решивший быть вне закона, да и вообще подозрительный и неприятный тип.
    Чью сторону выберет Поль: добропорядочного лесничего Бореля или браконьера Тотоша? А может, юный сорванец и вовсе станет лучшим другом надменному графу?

    Дата мировой премьеры: 25 августа 2017
    Дата российской премьеры: 25 октября 2018, Пионер
    Продолжительность: 01: 55: 40
    Качество видео: BDRip
    Перевод: Дублированный (iTunes )
    Субтитры: Отсутствуют
    Видео: Xvid, 720х304, ~1421 Kbps
    Аудио: AC3, 6 ch, 384 Kbps

    Общее
    Полное имя : C: UsersUserDesktopNNMClubLecolebuissonniereBDRip.avi
    Формат : AVI
    Формат/Информация : Audio Video Interleave
    Профиль формата : OpenDML
    Размер файла : 1, 47 Гбайт
    Продолжительность : 1 ч. 55 м.
    Общий поток : 1817 Кбит/сек
    Программа кодирования : XviD4PSP 6.0/54.27.101
    Видео
    Идентификатор : 0
    Формат : MPEG-4 Visual
    Профиль формата : Advanced Simple@L5
    Настройки формата : BVOP2/Custom Matrix
    Параметр BVOP формата : 2
    Параметр QPel формата : Нет
    Параметр GMC формата : Без точки перехода
    Параметр матрицы формата : Выборочная
    Идентификатор кодека : XVID
    Идентификатор кодека/Подсказка : XviD
    Продолжительность : 1 ч. 55 м.
    Битрейт : 1421 Кбит/сек
    Ширина : 720 пикселей
    Высота : 304 пикселя
    Соотношение сторон : 2, 35: 1
    Частота кадров : 24, 000 кадра/сек
    Цветовое пространство : YUV
    Субдискретизация насыщенности : 4: 2: 0
    Битовая глубина : 8 бит
    Тип развёртки : Прогрессивная
    Метод сжатия : С потерями
    Бит/(Пиксели*Кадры) : 0.271
    Размер потока : 1, 15 Гбайт (78%)
    Библиотека кодирования : XviD 73
    Аудио
    Идентификатор : 1
    Формат : AC-3
    Формат/Информация : Audio Coding 3
    Коммерческое название : Dolby Digital
    Идентификатор кодека : 2000
    Продолжительность : 1 ч. 55 м.
    Вид битрейта : Постоянный
    Битрейт : 384 Кбит/сек
    Каналы : 6 каналов
    Channel layout : L R C LFE Ls Rs
    Частота : 48, 0 КГц
    Частота кадров : 31, 250 кадров/сек (1536 SPF)
    Битовая глубина : 16 бит
    Метод сжатия : С потерями
    Размер потока : 317 Мбайт (21%)
    Выравнивание : Соединение по промежуткам
    Продолжительность промежутка : 32 мс. (0, 77 видеокадр)
    ServiceKind/String : Complete Main

    Скриншоты для ознакомления



    Все одноименные релизы в Клубе
    Время раздачи: 24/7 (до появления первых 3-5 скачавших)


    Онлайн видео Как прогулять школу с пользой



    Как прогулять школу с пользой/Lecole buissonniere (2017) BDRip
    Рейтинг →
     (голосов: 1, оценка 5/5, голосовать можно 1 раз )

    Другие торренты по теме:

  • Как прогулять школу с пользой / Lecole buissonniere (2017) BDRip [H.264]
  • Как прогулять школу с пользой / Lecole buissonniere (2017) BDRip [H.264 / 1080p]


    • Комментарии (0):

      Информация

      Информация

        Посетители, находящиеся в группе Гости, не могут оставлять комментарии в данной новости.

        ↓ Меню




        ↓ Опрос

        Вы добавили сайт в закладки?
        Да
        Нет


        Top 10 за месяц (Мультфильмы)