.
Авторизация | Регистрация

Торрент скачать бесплатно

  • support: webmaster@btracker.club
» » Гостья из будущего (1984) 2хDVD9 торрент скачать бесплатно


    Гостья из будущего (1984) 2хDVD9 торрент скачать бесплатно

    Дата: 30-12-2018, 16:13 | .torrent скачали: 0

    Гостья из будущего (1984) 2хDVD9Производство: СССР
    Жанр: Фантастика, Комедия, Семейный, Приключения
    Режиссер: Павел Арсенов

    Актеры
    Алексей Фомкин, Наташа Гусева, Марьяна Ионесян, Евгений Герасимов, Илюша Наумов, Вячеслав Невинный, Михаил Кононов, Георгий Бурков, Валентина Талызина, Мария Стерникова, Людмила Аринина, Татьяна Божок, Екатерина Васильева, Наталья Варлей, Борис Щербаков.

    Описание

    Пионер Коля, начитавшись фантастики, вычислил в толпе инопланетянку и, следуя за ней, нашел в заброшенном доме машину времени. С ее помощью, он побывал в будущем, где прихватил у космических пиратов Крыса и Весельчака У миелофон - приборчик, угадывающий мысли. Однако, пираты не собираются так просто расставаться с ним и перемещаются вслед за Колей в 1984 год. Пока Коля ломает голову над простым вопросом - Куда ему девать миелофон? в его классе появляется новая ученица - Алиса Селезнева… и дальше начинается увлекательная чехарда с постоянными погонями и поисками…

    Возраст: 0+ (для любой зрительской аудитории)
    Продолжительность: 05: 03: 36
    Качество видео: DVD9
    Субтитры: русские
    Видео: MPEG-2, 720х576, ~4830 Kbps
    Аудио: AC3, 6 ch, 448 Kbps

    Общее
    Полное имя : Гостья из будущего (1984) 2xDVD9DISK1VIDEO_TSVTS_06_1.VOB
    Формат : MPEG-PS
    Размер файла : 1024 Мбайт
    Продолжительность : 26 м. 34 с.
    Режим общего битрейта : Переменный
    Общий поток : 5385 Кбит/сек
    Библиотека кодирования : (c) 1997-2004 Womble Multimedia, Inc./MPEG Video Wizard (12/2003)/Mar 14 2004
    Видео
    Идентификатор : 224 (0xE0)
    Формат : MPEG Video
    Версия формата : Version 2
    Профиль формата : Main@Main
    Настройки формата : CustomMatrix/BVOP
    Параметр BVOP формата : Да
    Параметр матрицы формата : Выборочная
    Параметр GOP формата : M=3, N=15
    Структура изображения : Frame
    Продолжительность : 26 м. 34 с.
    Вид битрейта : Переменный
    Битрейт : 4830 Кбит/сек
    Максимальный битрейт : 8000 Кбит/сек
    Ширина : 720 пикселей
    Высота : 576 пикселей
    Соотношение сторон : 4: 3
    Частота кадров : 25, 000 кадров/сек
    Стандарт вещания : PAL
    Цветовое пространство : YUV
    Субдискретизация насыщенности : 4: 2: 0
    Битовая глубина : 8 бит
    Тип развёртки : Чересстрочная
    Порядок развёртки : Верхнее поле первое
    Метод сжатия : С потерями
    Бит/(Пиксели*Кадры) : 0.466
    Временной код первого кадра : 00: 00: 00: 00
    Оригинал временного кода : Group of pictures t_head
    GOP, открыто/закрыто : Закрыто
    Размер потока : 918 Мбайт (90%)
    Библиотека кодирования : (c) 1997-2004 Womble Multimedia, Inc./MPEG Video Wizard (12/2003)/Mar 14 2004
    Аудио
    Идентификатор : 189 (0xBD)-128 (0x80)
    Формат : AC-3
    Формат/Информация : Audio Coding 3
    Коммерческое название : Dolby Digital
    Режим смешивания : DVD-Video
    Продолжительность : 26 м. 34 с.
    Вид битрейта : Постоянный
    Битрейт : 448 Кбит/сек
    Каналы : 6 каналов
    Channel layout : L R C LFE Ls Rs
    Частота : 48, 0 КГц
    Частота кадров : 31, 250 кадров/сек (1536 SPF)
    Битовая глубина : 16 бит
    Метод сжатия : С потерями
    Размер потока : 85, 2 Мбайт (8%)
    ServiceKind/String : Complete Main
    Текст
    Идентификатор : 189 (0xBD)-32 (0x20)
    Формат : RLE
    Формат/Информация : Run-length encoding
    Режим смешивания : DVD-Video
    Меню
    Реклама
    Отсутствуют

    Скриншоты для ознакомления



    Все одноименные релизы в Клубе
    Время раздачи: 247 (до появления первых 3-5 скачавших)


    Онлайн видео Три богатыря и Наследница престола (2018) TS [H.264



    Гостья из будущего (1984) 2хDVD9
    Рейтинг →
     (голосов: 1, оценка 4/5, голосовать можно 1 раз )

    Другие торренты по теме:

  • Гостья из будущего (1984) DVDRip [H.264 / hand made 60fps]
  • Кир Булычёв | Гостья из будущего (2016) [MP3]
  • Гостья из будущего (1984) DVDRip [H.264 / 576p] (серии 1-5 из 5)
  • Гостья из будущего (1984) DVDRip (фанатская версия) [hand made]
  • Гостья из будущего (1984) DVD9


    • Комментарии (0):

      Информация

      Информация

        Посетители, находящиеся в группе Гости, не могут оставлять комментарии в данной новости.

        ↓ Меню




        ↓ Опрос

        Вы добавили сайт в закладки?
        Да
        Нет


        Top 10 за месяц (Мультфильмы)

        Оранжевая корова (2018-2019) WEB-DLRip [H.264 / 720p-LQ] (сезон 1, серии 1-3 из 20)

        (скачиваний: 278)
        Три кота (2018) WEB-DLRip [H.264 / 720p-LQ] (сезон 3, серии 105-106 из 156)

        (скачиваний: 161)
        Рик и Морти / Rick and Morty (2015) WEB-DL [H.264 / 1080p] (Сезон 2, серии 1-10 из 10) Сыендук [EN / RU Sub] скачать через торрент бесплатно

        (скачиваний: 155)
        Лунтик и его друзья (2013-2017) WEB-DLRip 7,8,9 сезон (390-488 серии)[Обновляемая]

        (скачиваний: 96)
        Роботы-поезда / Robot Trains (2017) WEB-DL [H.264 / 720p-LQ] (1 сезон, 32 серий из 32)

        (скачиваний: 94)
        Футурама / Futurama (1999-2013) DVDRip (7 Сезонов, 140 серии) скачать через торрент бесплатно

        (скачиваний: 89)
        МиниФорс X / MiniForce X (2019) WEB-DLRip [H.264 / 720p-LQ] (сезон 2, серии 1-26 из 52) [Обновляемая]

        (скачиваний: 82)
        Космический рубеж / Final Space (2018) WEB-DLRip [H.264 / 1080p] (Сезон 1, Серии 10 из 10) Кубик в Кубе

        (скачиваний: 73)
        Расти-механик / Rusty Rivets (2016) WEB-DL [H.264] (Серии 1-23)

        (скачиваний: 67)
        МУЛЬТ в кино. Выпуск 66: Новогодние каникулы (2018) WEB-DLRip [H.264 / 720p-LQ]

        (скачиваний: 63)