.
Авторизация | Регистрация
Хочешь лучшие торренты? Добавь свой email!
Добавить

Торрент скачать бесплатно

  • support: webmaster@btracker.club
» » Морозко (1964) HDTVRip [H.264 / 1080p] торрент скачать бесплатно


    Морозко (1964) HDTVRip [H.264 / 1080p] торрент скачать бесплатно

    Опубликовал: fregat | Дата: 30-12-2018, 16:13 | .torrent скачали: 2

    Морозко (1964) HDTVRip [H.264 / 1080p]Производство: СССР/Киностудия им. М. Горького
    Жанр: Фэнтези, мелодрама, комедия, семейный
    Режиссер: Александр Роу

    Актеры
    Александр Хвыля, Наталья Седых, Эдуард Изотов, Инна Чурикова, Павел Павленко, Вера Алтайская, Георгий Милляр, Галина Борисова, Анатолий Кубацкий, Валентин Брылеев

    Описание

    Жила-была хорошая добрая девушка Настенька. Злая мачеха заставляла ее работать, не давая продыху. Однажды она решила избавиться от падчерицы и отправила ту замерзать в зимний лес. В этих же краях жил паренек Иван. Он полюбил Настеньку, да вот только был он большим хвастуном, потому лесной колдун и превратил его в медведя.
    И Настеньке, и Ивану пришлось пройти через много испытаний, прежде чем соединить свои судьбы. И помог им в этом добрый волшебник — дедушка Морозко…

    Возраст: 12+ (зрителям, достигшим 12 лет)
    Продолжительность: 01: 18: 50
    Качество видео: HDTVRip (1080p)
    Перевод: Не требуется (русский)
    Субтитры: Русские (Full), английские (Full)
    Видео: AVC/H.264, 1480x1080, ~13, 8 Mbps
    Аудио: AC-3, 6 ch, 448 Kbps

    Общее
    Уникальный идентификатор : 213825790215450167698028536360141831901 (0xA0DD5966DD0342DB8927BCDD1477BEDD)
    Полное имя : E: NNMМорозкоМорозко 1964_HDTVRip 1080p_KORSAR.mkv
    Формат : Matroska
    Версия формата : Version 2
    Размер файла : 7, 85 Гбайт
    Продолжительность : 1 ч. 18 м.
    Общий поток : 14, 2 Мбит/сек
    Дата кодирования : UTC 2018-12-28 17: 19: 36
    Программа кодирования : mkvmerge v5.8.0 (\'No Sleep/Pillow\') built on Sep 2 2012 15: 37: 04
    Библиотека кодирования : libebml v1.2.3 + libmatroska v1.3.0
    Видео
    Идентификатор : 1
    Формат : AVC
    Формат/Информация : Advanced Video Codec
    Профиль формата : High@L4.1
    Настройки формата : CABAC/5 Ref Frames
    Параметр CABAC формата : Да
    Параметр RefFrames формата : 5 кадров
    Идентификатор кодека : V_MPEG4/ISO/AVC
    Продолжительность : 1 ч. 18 м.
    Битрейт : 13, 8 Мбит/сек
    Ширина : 1480 пикселей
    Высота : 1080 пикселей
    Соотношение сторон : 1, 370
    Режим частоты кадров : Постоянный
    Частота кадров : 25, 000 кадров/сек
    Цветовое пространство : YUV
    Субдискретизация насыщенности : 4: 2: 0
    Битовая глубина : 8 бит
    Тип развёртки : Прогрессивная
    Бит/(Пиксели*Кадры) : 0.345
    Размер потока : 7, 44 Гбайт (95%)
    Библиотека кодирования : x264 core 152 r2851kMod ba24899
    Настройки программы : cabac=1/ref=5/deblock=1: -2: -2/analyse=0x3: 0x113/me=umh/subme=11/psy=1/fade_compensate=0.00/psy_rd=1.02: 0.02/mixed_ref=1/me_range=48/chroma_me=1/trellis=2/8x8dct=1/cqm=0/deadzone=21, 11/fast_pskip=0/chroma_qp_offset=-3/threads=12/lookahead_threads=3/sliced_threads=0/nr=0/decimate=0/interlaced=0/bluray_compat=0/constrained_intra=0/bframes=11/b_pyramid=2/b_adapt=2/b_bias=0/direct=3/weightb=1/open_gop=0/weightp=2/keyint=240/keyint_min=24/scenecut=40/intra_refresh=0/rc_lookahead=40/rc=2pass/mbtree=0/bitrate=13800/ratetol=1.0/qcomp=0.60/qpmin=0/qpmax=39/qpstep=4/cplxblur=20.0/qblur=0.5/vbv_maxrate=50000/vbv_bufsize=62500/nal_hrd=none/filler=0/ip_ratio=1.25/pb_ratio=1.30/aq=1: 1.00
    Язык : English
    Default : Да
    Forced : Нет
    Аудио
    Идентификатор : 2
    Формат : AC-3
    Формат/Информация : Audio Coding 3
    Идентификатор кодека : A_AC3
    Продолжительность : 1 ч. 18 м.
    Вид битрейта : Постоянный
    Битрейт : 448 Кбит/сек
    Каналы : 6 каналов
    Расположение каналов : Front: L C R, Side: L R, LFE
    Частота : 48, 0 КГц
    Частота кадров : 31, 250 кадров/сек (1536 SPF)
    Битовая глубина : 16 бит
    Метод сжатия : С потерями
    Задержка видео : 200 мс.
    Размер потока : 253 Мбайт (3%)
    Язык : Russian
    ServiceKind/String : Complete Main
    Default : Да
    Forced : Да
    Текст #1
    Идентификатор : 3
    Формат : UTF-8
    Идентификатор кодека : S_TEXT/UTF8
    Идентификатор кодека/Информация : UTF-8 Plain Text
    Заголовок : RUS Full
    Язык : Russian
    Default : Нет
    Forced : Нет
    Текст #2
    Идентификатор : 4
    Формат : UTF-8
    Идентификатор кодека : S_TEXT/UTF8
    Идентификатор кодека/Информация : UTF-8 Plain Text
    Заголовок : ENG Full
    Язык : English
    Default : Нет
    Forced : Нет
    Меню
    00: 00: 00.000 : en: 00: 00: 00.000
    00: 02: 08.160 : en: 00: 02: 08.160
    00: 08: 05.760 : en: 00: 08: 05.760
    00: 14: 04.800 : en: 00: 14: 04.800
    00: 17: 49.920 : en: 00: 17: 49.920
    00: 26: 02.880 : en: 00: 26: 02.880
    00: 32: 10.080 : en: 00: 32: 10.080
    00: 33: 53.760 : en: 00: 33: 53.760
    00: 37: 41.760 : en: 00: 37: 41.760
    00: 41: 10.560 : en: 00: 41: 10.560
    00: 44: 14.400 : en: 00: 44: 14.400
    00: 48: 28.320 : en: 00: 48: 28.320
    00: 52: 59.520 : en: 00: 52: 59.520
    00: 58: 29.280 : en: 00: 58: 29.280
    01: 05: 36.000 : en: 01: 05: 36.000
    01: 09: 48.480 : en: 01: 09: 48.480
    01: 16: 06.720 : en: 01: 16: 06.720

    Скриншоты для ознакомления





    Все одноименные релизы в Клубе Время раздачи: 24/7 (до появления первых 3-5 скачавших)


    Онлайн видео Морозко (1964) HDTVRip [H.264



    Морозко (1964) HDTVRip [H.264/1080p]
    Рейтинг →
     (голосов: 1, оценка 3/5, голосовать можно 1 раз )

    Другие торренты по теме:

  • Морозко (1964) HDTVRip
  • Морозко (1964) HDTVRip [H.264]
  • Морозко (1964) HDTVRip [H.264] [MP4|788x576]


    • Комментарии (0):

      Информация

      Информация

        Посетители, находящиеся в группе Гости, не могут оставлять комментарии в данной новости.

        ↓ Меню




        ↓ Опрос

        Вы добавили сайт в закладки?
        Да
        Нет


        Top 10 за месяц (Мультфильмы)