.
Авторизация | Регистрация
Хочешь лучшие торренты? Добавь свой email!
Добавить

Торрент скачать бесплатно

  • support: webmaster@btracker.club
» » Смолфут / Smallfoot (2018) BDRemux [H.264 / 1080p] торрент скачать бесплатно


    Смолфут / Smallfoot (2018) BDRemux [H.264 / 1080p] торрент скачать бесплатно

    Опубликовал: fregat | Дата: 28-12-2018, 05:00 | .torrent скачали: 1

    Смолфут / Smallfoot (2018) BDRemux [H.264 / 1080p]Производство: США/Warner Animation Group, Warner Bros. Animation, Warner Bros. Pictures, Zaftig Films
    Жанр: мультфильм, мюзикл, фэнтези, комедия, приключения, семейный
    Режиссер: Кэри Киркпатрик, Джейсон Рейсиг
    Актёры: Ченнинг Татум, Джеймс Корден, Зендая Колеман, Коммон, Леброн Джеймс, Дэнни ДеВито, Джина Родригез, Яра Шахиди, Эли Генри, Джимми Татро

    Описание

    Молодой находчивый йети сталкивается с тем, кого, по его глубокому убеждению, не существует — человеком. Новости о смолфуте приносят ему славу и шанс завоевать девушку его мечты. А ещё — вызывают переполох среди простых йети, которые теперь гадают, кто же ещё обитает в большом мире за пределами их маленькой заснеженной деревушки.

    Возраст: 6+ (зрителям, достигшим 6 лет)
    Рейтинг MPAA: PG (рекомендуется присутствие родителей)
    Дата мировой премьеры: 20 сентября 2018
    Дата российской премьеры: 20 октября 2018, Каро-Премьер
    Релиз от: Селезень
    Продолжительность: 01: 36: 17
    Качество видео: BDRemux
    Перевод: Дублированный (iTunes )
    Субтитры: Русские (full, forced), английские (full, SDH), украинские (forced)
    Видео: AVC/H.264, 1920x1080, ~22, 3 Mbps
    Аудио #1: AC3, 6 ch, 384 Kbps | Русский (DUB, iTunes)
    Аудио #2: AC3, 2 ch, 126 Kbps | Украинский
    Аудио #3: DTS-HD MA, 6 ch, 4179 Kbps | Английский

    Общее
    Уникальный идентификатор : 202816290539016452387252985668709676739 (0x9894FF28C55475E661ABD1063B6076C3)
    Полное имя : C: UsersUserDesktopNNMClubSmallfoot.2018.BDREMUX.1080p.seleZen.mkv
    Формат : Matroska
    Версия формата : Version 4
    Размер файла : 18, 2 Гбайт
    Продолжительность : 1 ч. 36 м.
    Режим общего битрейта : Переменный
    Общий поток : 27, 0 Мбит/сек
    Название фильма : Smallfoot 2018 from селезень
    Дата кодирования : UTC 2018-12-26 20: 42: 59
    Программа кодирования : mkvmerge v29.0.0 (\'Like It Or Not\') 64-bit
    Библиотека кодирования : libebml v1.3.6 + libmatroska v1.4.9
    Видео
    Идентификатор : 1
    Формат : AVC
    Формат/Информация : Advanced Video Codec
    Профиль формата : High@L4.1
    Настройки формата : CABAC/2 Ref Frames
    Параметр CABAC формата : Да
    Параметр RefFrames формата : 2 кадра
    Идентификатор кодека : V_MPEG4/ISO/AVC
    Продолжительность : 1 ч. 36 м.
    Вид битрейта : Переменный
    Битрейт : 22, 3 Мбит/сек
    Ширина : 1920 пикселей
    Высота : 1080 пикселей
    Соотношение сторон : 16: 9
    Режим частоты кадров : Постоянный
    Частота кадров : 23, 976 (24000/1001) кадра/сек
    Цветовое пространство : YUV
    Субдискретизация насыщенности : 4: 2: 0
    Битовая глубина : 8 бит
    Тип развёртки : Прогрессивная
    Бит/(Пиксели*Кадры) : 0.449
    Размер потока : 15, 0 Гбайт (83%)
    Язык : English
    Default : Да
    Forced : Нет
    Аудио #1
    Идентификатор : 2
    Формат : AC-3
    Формат/Информация : Audio Coding 3
    Коммерческое название : Dolby Digital
    Идентификатор кодека : A_AC3
    Продолжительность : 1 ч. 36 м.
    Вид битрейта : Постоянный
    Битрейт : 384 Кбит/сек
    Каналы : 6 каналов
    Channel layout : L R C LFE Ls Rs
    Частота : 48, 0 КГц
    Частота кадров : 31, 250 кадров/сек (1536 SPF)
    Битовая глубина : 16 бит
    Метод сжатия : С потерями
    Размер потока : 264 Мбайт (1%)
    Заголовок : iTunes
    Язык : Russian
    ServiceKind/String : Complete Main
    Default : Да
    Forced : Да
    Аудио #2
    Идентификатор : 3
    Формат : AAC LC
    Формат/Информация : Advanced Audio Codec Low Complexity
    Идентификатор кодека : A_AAC-2
    Продолжительность : 1 ч. 36 м.
    Битрейт : 126 Кбит/сек
    Каналы : 2 канала
    Channel layout : L R
    Частота : 48, 0 КГц
    Частота кадров : 46, 875 кадров/сек (1024 SPF)
    Метод сжатия : С потерями
    Размер потока : 87, 0 Мбайт (0%)
    Заголовок : iTunes
    Язык : Ukrainian
    Default : Нет
    Forced : Нет
    Аудио #3
    Идентификатор : 4
    Формат : DTS XLL
    Формат/Информация : Digital Theater Systems
    Коммерческое название : DTS-HD Master Audio
    Идентификатор кодека : A_DTS
    Продолжительность : 1 ч. 36 м.
    Вид битрейта : Переменный
    Битрейт : 4179 Кбит/сек
    Каналы : 6 каналов
    Channel layout : C L R Ls Rs LFE
    Частота : 48, 0 КГц
    Частота кадров : 93, 750 кадра/сек (512 SPF)
    Битовая глубина : 24 бит
    Метод сжатия : Без потерь
    Размер потока : 2, 81 Гбайт (15%)
    Заголовок : Original
    Язык : English
    Default : Нет
    Forced : Нет
    Текст #1
    Идентификатор : 5
    Формат : UTF-8
    Идентификатор кодека : S_TEXT/UTF8
    Идентификатор кодека/Информация : UTF-8 Plain Text
    Продолжительность : 55 м. 58 с.
    Битрейт : 1 бит/сек
    ElementCount : 19
    Размер потока : 729 байт (0%)
    Заголовок : Forced
    Язык : Russian
    Default : Да
    Forced : Да
    Текст #2
    Идентификатор : 6
    Формат : UTF-8
    Идентификатор кодека : S_TEXT/UTF8
    Идентификатор кодека/Информация : UTF-8 Plain Text
    Продолжительность : 1 ч. 35 м.
    Битрейт : 108 бит/сек
    ElementCount : 1500
    Размер потока : 76, 0 Кбайт (0%)
    Заголовок : Full
    Язык : Russian
    Default : Нет
    Forced : Нет
    Текст #3
    Идентификатор : 7
    Формат : UTF-8
    Идентификатор кодека : S_TEXT/UTF8
    Идентификатор кодека/Информация : UTF-8 Plain Text
    Продолжительность : 55 м. 59 с.
    Битрейт : 1 бит/сек
    ElementCount : 19
    Размер потока : 750 байт (0%)
    Заголовок : Forced
    Язык : Ukrainian
    Default : Нет
    Forced : Нет
    Текст #4
    Идентификатор : 8
    Формат : UTF-8
    Идентификатор кодека : S_TEXT/UTF8
    Идентификатор кодека/Информация : UTF-8 Plain Text
    Продолжительность : 1 ч. 30 м.
    Битрейт : 75 бит/сек
    ElementCount : 1774
    Размер потока : 50, 2 Кбайт (0%)
    Заголовок : Full
    Язык : English
    Default : Нет
    Forced : Нет
    Текст #5
    Идентификатор : 9
    Формат : UTF-8
    Идентификатор кодека : S_TEXT/UTF8
    Идентификатор кодека/Информация : UTF-8 Plain Text
    Продолжительность : 1 ч. 30 м.
    Битрейт : 88 бит/сек
    ElementCount : 2098
    Размер потока : 58, 6 Кбайт (0%)
    Заголовок : SDH
    Язык : English
    Default : Нет
    Forced : Нет
    Меню
    00: 00: 00.000 : : Chapter 01
    00: 09: 56.262 : : Chapter 02
    00: 21: 36.295 : : Chapter 03
    00: 32: 10.637 : : Chapter 04
    00: 38: 33.602 : : Chapter 05
    00: 49: 59.705 : : Chapter 06
    00: 55: 37.167 : : Chapter 07
    01: 01: 53.209 : : Chapter 08
    01: 12: 04.278 : : Chapter 09
    01: 18: 26.076 : : Chapter 10
    01: 26: 16.796 : : Chapter 11
    01: 31: 12.300 : : Chapter 12
    File: C: UsersUserDesktopNNMClubSmallfoot.2018.BDREMUX.1080p.seleZen.mkv
    Duration: 01: 36: 18 (5777.78)
    Track #1: video
    lang: Unknown (1)
    codc: V_MPEG4/ISO/AVC - H264/AVC (22)
    reso: 1920x1080 - 16: 9
    fram: 23.976 fps
    rate: 22340 kbps (22340.1)
    dura: 01: 36: 18 (5777.73)
    size: 15.03 GB (16134385105)
    Track #2: audio (iTunes)
    lang: rus - Russian (15)
    codc: A_AC3 - AC3 (2)
    chan: 6 - 5.1 Surround
    samp: 48000 Hz
    rate: 384 kbps (384.05)
    dura: 01: 36: 17 (5777.06)
    size: 264.49 MB (277335089)
    Track #3: audio (iTunes)
    lang: ukr - Unknown (1)
    codc: A_AAC - AAC (9)
    chan: 2 - Stereo
    samp: 48000 Hz
    rate: 127 kbps (126.83)
    dura: 01: 36: 17 (5777.13)
    size: 87.34 MB (91586847)
    Track #4: audio (Original)
    lang: Unknown (1)
    codc: A_DTS - DTS (13)
    chan: 6 - 5.1 Surround
    samp: 48000 Hz
    rate: 4180 kbps (4180.35)
    dura: 01: 36: 18 (5777.70)
    size: 2.81 GB (3019096783)
    Track #5: subtitles (Forced)
    lang: rus - Russian (15)
    type: S_TEXT/UTF8 - SRT (3)
    size: 729.00 B (729)
    Track #6: subtitles (Full)
    lang: rus - Russian (15)
    type: S_TEXT/UTF8 - SRT (3)
    size: 76.04 KB (77866)
    Track #7: subtitles (Forced)
    lang: ukr - Unknown (1)
    type: S_TEXT/UTF8 - SRT (3)
    size: 750.00 B (750)
    Track #8: subtitles (Full)
    lang: Unknown (1)
    type: S_TEXT/UTF8 - SRT (3)
    size: 50.21 KB (51419)
    Track #9: subtitles (SDH)
    lang: Unknown (1)
    type: S_TEXT/UTF8 - SRT (3)
    size: 58.64 KB (60046)
    Sizes: (check sanity)
    disk: 18.18 GB (19525363302)
    trac: 6.18 GB (6637692746) based on track size
    bitr: 18.18 GB (19522462954) based on bitrate
    tdif: 12.00 GB (12887670556) 66.00%
    bdif: 2.77 MB (2900347) 0.01%

    Скриншоты для ознакомления



    Все одноименные релизы в Клубе
    Время раздачи: 24/7 (до появления первых 3-5 скачавших)


    Онлайн видео Смолфут



    Смолфут/Smallfoot (2018) BDRemux [H.264/1080p]
    Рейтинг →
     (голосов: 1, оценка 5/5, голосовать можно 1 раз )

    Другие торренты по теме:

  • Смолфут / Smallfoot (2018) HDRip [Line, AD]
  • Смолфут / Smallfoot (2018) BDRip [H.264 / 1080p-LQ] [EN / EN Sub] [PR]
  • Смолфут / Smallfoot (2018) BDRip 3D [H.264 / 1080p] [вертикальная анаморфная стереопара] [handmade 16:9]
  • Смолфут / Smallfoot (2018) BDRip 3D [H.264 / 1080p] [вертикальная анаморфная стереопара]
  • Смолфут / Smallfoot (2018) BDRip
  • Смолфут / Smallfoot (2018) BDRip [H.264 / 1080p]
  • Смолфут / Smallfoot (2018) BDRip [576p] iPad
  • Смолфут / Smallfoot (2018) BDRip [1080p] ATV


    • Комментарии (0):

      Информация

      Информация

        Посетители, находящиеся в группе Гости, не могут оставлять комментарии в данной новости.

        ↓ Меню




        ↓ Опрос

        Вы добавили сайт в закладки?
        Да
        Нет


        Top 10 за месяц (Мультфильмы)