.
Авторизация | Регистрация
Хочешь лучшие торренты? Добавь свой email!
Добавить

Торрент скачать бесплатно

  • support: webmaster@btracker.club
» » Смолфут / Smallfoot (2018) BDRip торрент скачать бесплатно


    Смолфут / Smallfoot (2018) BDRip торрент скачать бесплатно

    Опубликовал: fregat | Дата: 28-12-2018, 05:00 | .torrent скачали: 1

    Смолфут / Smallfoot (2018) BDRipПроизводство: США/Warner Animation Group, Warner Bros. Animation, Warner Bros. Pictures, Zaftig Films
    Жанр: мультфильм, мюзикл, фэнтези, комедия, приключения, семейный
    Режиссер: Кэри Киркпатрик, Джейсон Рейсиг
    Актёры: Ченнинг Татум, Джеймс Корден, Зендая Колеман, Коммон, Леброн Джеймс, Дэнни ДеВито, Джина Родригез, Яра Шахиди, Эли Генри, Джимми Татро

    Описание

    Молодой находчивый йети сталкивается с тем, кого, по его глубокому убеждению, не существует — человеком. Новости о смолфуте приносят ему славу и шанс завоевать девушку его мечты. А ещё — вызывают переполох среди простых йети, которые теперь гадают, кто же ещё обитает в большом мире за пределами их маленькой заснеженной деревушки.

    Возраст: 6+ (зрителям, достигшим 6 лет)
    Рейтинг MPAA: PG (рекомендуется присутствие родителей)
    Дата мировой премьеры: 20 сентября 2018
    Дата российской премьеры: 20 октября 2018, Каро-Премьер
    Продолжительность: 01: 36: 17
    Качество видео: BDRip
    Перевод: Дублированный (iTunes )
    Субтитры: Русские (forced, отдельным файлом)
    Видео: Xvid, 720x304, ~1714 Kbps
    Аудио: AC3, 6 ch, 384 Kbps

    Общее
    Полное имя : C: UsersUserDesktopNNMClubSmallfoot.2018.BDRipSmallfoot.2018.BDRip.avi
    Формат : AVI
    Формат/Информация : Audio Video Interleave
    Размер файла : 1, 42 Гбайт
    Продолжительность : 1 ч. 36 м.
    Общий поток : 2107 Кбит/сек
    Программа кодирования : VirtualDubMod 1.5.10.3 |www.virtualdub-fr.org|| (build 2550/release)
    Библиотека кодирования : VirtualDubMod build 2550/release
    Видео
    Идентификатор : 0
    Формат : MPEG-4 Visual
    Профиль формата : Advanced Simple@L5
    Настройки формата : BVOP1/Custom Matrix
    Параметр BVOP формата : 1
    Параметр QPel формата : Нет
    Параметр GMC формата : Без точки перехода
    Параметр матрицы формата : Выборочная
    Идентификатор кодека : XVID
    Идентификатор кодека/Подсказка : XviD
    Продолжительность : 1 ч. 36 м.
    Битрейт : 1714 Кбит/сек
    Ширина : 720 пикселей
    Высота : 304 пикселя
    Соотношение сторон : 2, 35: 1
    Частота кадров : 23, 976 (24000/1001) кадра/сек
    Цветовое пространство : YUV
    Субдискретизация насыщенности : 4: 2: 0
    Битовая глубина : 8 бит
    Тип развёртки : Прогрессивная
    Метод сжатия : С потерями
    Бит/(Пиксели*Кадры) : 0.327
    Размер потока : 1, 15 Гбайт (81%)
    Библиотека кодирования : XviD 73
    Аудио
    Идентификатор : 1
    Формат : AC-3
    Формат/Информация : Audio Coding 3
    Коммерческое название : Dolby Digital
    Идентификатор кодека : 2000
    Продолжительность : 1 ч. 36 м.
    Вид битрейта : Постоянный
    Битрейт : 384 Кбит/сек
    Каналы : 6 каналов
    Channel layout : L R C LFE Ls Rs
    Частота : 48, 0 КГц
    Частота кадров : 31, 250 кадров/сек (1536 SPF)
    Битовая глубина : 16 бит
    Метод сжатия : С потерями
    Размер потока : 264 Мбайт (18%)
    Выравнивание : Разделение по промежуткам
    Продолжительность промежутка : 42 мс. (1, 00 видеокадр)
    Время предзагрузки промежутка : 500 мс.
    ServiceKind/String : Complete Main

    Скриншоты для ознакомления



    Все одноименные релизы в Клубе
    Время раздачи: 24/7 (до появления первых 3-5 скачавших)


    Онлайн видео Смолфут



    Смолфут/Smallfoot (2018) BDRip
    Рейтинг →
     (голосов: 1, оценка 5/5, голосовать можно 1 раз )

    Другие торренты по теме:

  • Смолфут / Smallfoot (2018) HDRip [Line, AD]
  • Смолфут / Smallfoot (2018) BDRip [H.264 / 1080p-LQ] [EN / EN Sub] [PR]
  • Смолфут / Smallfoot (2018) BDRip 3D [H.264 / 1080p] [вертикальная анаморфная стереопара] [handmade 16:9]
  • Смолфут / Smallfoot (2018) BDRip 3D [H.264 / 1080p] [вертикальная анаморфная стереопара]
  • Смолфут / Smallfoot (2018) BDRip [H.264 / 1080p]
  • Смолфут / Smallfoot (2018) BDRemux [H.264 / 1080p]
  • Смолфут / Smallfoot (2018) BDRip [576p] iPad
  • Смолфут / Smallfoot (2018) BDRip [1080p] ATV


    • Комментарии (0):

      Информация

      Информация

        Посетители, находящиеся в группе Гости, не могут оставлять комментарии в данной новости.

        ↓ Меню




        ↓ Опрос

        Вы добавили сайт в закладки?
        Да
        Нет


        Top 10 за месяц (Мультфильмы)

        Оранжевая корова (2018-2019) WEB-DLRip [H.264 / 720p-LQ] (сезон 1, серии 1-3 из 20)

        (скачиваний: 88)
        Рик и Морти / Rick and Morty (2015) WEB-DL [H.264 / 1080p] (Сезон 2, серии 1-10 из 10) Сыендук [EN / RU Sub] скачать через торрент бесплатно

        (скачиваний: 38)
        Три кота (2018) WEB-DLRip [H.264 / 720p-LQ] (сезон 3, серии 105-106 из 156)

        (скачиваний: 34)
        Пластилинки. Циферки (2018-2019) WEB-DLRip [H.264 / 720p-LQ] (сезон 1, серии 1-6 из 10)

        (скачиваний: 32)
        Филип Рив | Цикл «Хроники хищных городов» [4 книги] (2018) [FB2]

        (скачиваний: 25)
        Джоан Кэтлин Роулинг | Гарри Поттер. Полное собрание [7 книг] (2005-2007) [PDF, DJVU, FB2, EPUB]

        (скачиваний: 21)
        Кир Булычев | Серия книг "Алиса Селезнева" [53 книги] (1998-2017) [FB2]

        (скачиваний: 18)
        В гостях у сказки (сборник 56 фильмов) (1939-2009) DVDRip

        (скачиваний: 15)
        А.А. Спектор | Большая книга химических элементов (2018) [DJVU]

        (скачиваний: 15)
        Мэтт Маккарти, Глория Уинквист | Swift для детей. Самоучитель по созданию приложений для iOS (2018) [PDF]

        (скачиваний: 14)