.
Авторизация | Регистрация
Хочешь лучшие торренты? Добавь свой email!
Добавить

Торрент скачать бесплатно

  • support: webmaster@btracker.club
» » Смолфут / Smallfoot (2018) BDRip 3D [H.264 / 1080p] [вертикальная анаморфная стереопара] торрент скачать бесплатно


    Смолфут / Smallfoot (2018) BDRip 3D [H.264 / 1080p] [вертикальная анаморфная стереопара] торрент скачать бесплатно

    Опубликовал: fregat | Дата: 28-12-2018, 05:00 | .torrent скачали: 0

    Смолфут / Smallfoot (2018) BDRip 3D [H.264 / 1080p] [вертикальная анаморфная стереопара]Производство: США/Warner Animation Group, Warner Bros. Animation, Warner Bros. Pictures, Zaftig Films
    Жанр: мультфильм, мюзикл, фэнтези, комедия, приключения, семейный
    Режиссер: Кэри Киркпатрик, Джейсон Рейсиг

    Актеры
    Ченнинг Татум, Джеймс Корден, Зендая Колеман, Коммон, Леброн Джеймс, Дэнни ДеВито, Джина Родригез, Яра Шахиди, Эли Генри, Джимми Татро

    Описание

    Молодой находчивый йети сталкивается с тем, кого, по его глубокому убеждению, не существует — человеком. Новости о смолфуте приносят ему славу и шанс завоевать девушку его мечты. А ещё — вызывают переполох среди простых йети, которые теперь гадают, кто же ещё обитает в большом мире за пределами их маленькой заснеженной деревушки.

    Возраст: 6+ (зрителям, достигшим 6 лет)
    Рейтинг MPAA: PG (рекомендуется присутствие родителей)
    Дата мировой премьеры: 20 сентября 2018
    Дата российской премьеры: 20 октября 2018, Каро-Премьер
    Продолжительность: 01: 36: 17
    Качество видео: BDRip 3D
    Перевод: Дублированный (iTunes )
    Субтитры: Русские (full, forced), английские (full)
    Видео: AVC/H.264, 1920x1080, ~9, 0 Mbps
    Аудио #1: AC3, 6 ch, 384 Kbps - Русский
    Аудио #2: DTS, 6 ch, 768 Kbps - Английский

    x264 info: frame I: 1490 Avg QP: 16.69 size: 197555
    x264 info: frame P: 34247 Avg QP: 18.03 size: 85936
    x264 info: frame B: 102767 Avg QP: 19.56 size: 31713
    Unique ID : 184495139074763431943090063607685083648 (0x8ACC78A6B5D6D8E09FE4EC27D2FE7200)
    Complete name : D: Temp3D Смолфут.mkv
    Format : Matroska
    Format version : Version 4/Version 2
    File size : 6.83 GiB
    Duration : 1h 36mn
    Overall bit rate : 10.2 Mbps
    Movie name : SMALLTOOT_2018_3D2D_RMX.Title0
    Encoded date : UTC 2018-12-27 11: 29: 24
    Writing application : mkvmerge v9.8.0 (\'Kuglblids\') 64bit
    Writing library : libebml v1.3.4 + libmatroska v1.4.5
    Video
    ID : 1
    Format : AVC
    Format/Info : Advanced Video Codec
    Format profile : High@L4.1
    Format settings, CABAC : Yes
    Format settings, ReFrames : 4 frames
    Codec ID : V_MPEG4/ISO/AVC
    Duration : 1h 36mn
    Bit rate : 9 000 Kbps
    Width : 1 920 pixels
    Height : 1 080 pixels
    Display aspect ratio : 16: 9
    Frame rate mode : Constant
    Frame rate : 23.976 fps
    Color space : YUV
    Chroma subsampling : 4: 2: 0
    Bit depth : 8 bits
    Scan type : Progressive
    Bits/(Pixel*Frame) : 0.181
    Stream size : 5.92 GiB (87%)
    Writing library : x264 core 157 r2935M 545de2f
    Encoding settings : cabac=1/ref=4/deblock=1: -3: -3/analyse=0x3: 0x113/me=umh/subme=9/psy=1/psy_rd=1.05: 0.10/mixed_ref=1/me_range=24/chroma_me=1/trellis=2/8x8dct=1/cqm=0/deadzone=21, 11/fast_pskip=0/chroma_qp_offset=-3/threads=5/lookahead_threads=1/sliced_threads=0/nr=0/decimate=0/interlaced=0/bluray_compat=0/constrained_intra=0/bframes=6/b_pyramid=2/b_adapt=2/b_bias=0/direct=1/weightb=1/open_gop=0/weightp=2/keyint=240/keyint_min=24/scenecut=40/intra_refresh=0/rc=2pass/mbtree=0/bitrate=9000/ratetol=1.0/qcomp=0.70/qpmin=3/qpmax=69/qpstep=4/cplxblur=20.0/qblur=0.5/ip_ratio=1.40/pb_ratio=1.30/aq=2: 1.00
    Default : Yes
    Forced : No
    Audio #1
    ID : 2
    Format : AC-3
    Format/Info : Audio Coding 3
    Mode extension : CM (complete main)
    Format settings, Endianness : Big
    Codec ID : A_AC3
    Duration : 1h 36mn
    Bit rate mode : Constant
    Bit rate : 384 Kbps
    Channel(s) : 6 channels
    Channel positions : Front: L C R, Side: L R, LFE
    Sampling rate : 48.0 KHz
    Bit depth : 16 bits
    Compression mode : Lossy
    Stream size : 264 MiB (4%)
    Language : Russian
    Default : Yes
    Forced : No
    Audio #2
    ID : 3
    Format : DTS
    Format/Info : Digital Theater Systems
    Mode : 16
    Format settings, Endianness : Big
    Codec ID : A_DTS
    Duration : 1h 36mn
    Bit rate mode : Constant
    Bit rate : 768 Kbps
    Channel(s) : 6 channels
    Channel positions : Front: L C R, Side: L R, LFE
    Sampling rate : 48.0 KHz
    Bit depth : 16 bits
    Compression mode : Lossy
    Stream size : 529 MiB (8%)
    Language : English
    Default : No
    Forced : No
    Text #1
    ID : 4
    Format : UTF-8
    Codec ID : S_TEXT/UTF8
    Codec ID/Info : UTF-8 Plain Text
    Title : Форсированные
    Language : Russian
    Default : Yes
    Forced : No
    Text #2
    ID : 5
    Format : UTF-8
    Codec ID : S_TEXT/UTF8
    Codec ID/Info : UTF-8 Plain Text
    Title : Полные
    Language : Russian
    Default : No
    Forced : No
    Text #3
    ID : 6
    Format : UTF-8
    Codec ID : S_TEXT/UTF8
    Codec ID/Info : UTF-8 Plain Text
    Title : SDH
    Language : English
    Default : No
    Forced : No

    Скриншоты для ознакомления



    Все одноименные релизы в Клубе
    Время раздачи: 24/7 (до появления первых 3-5 скачавших)


    Онлайн видео Смолфут



    Смолфут/Smallfoot (2018) BDRip 3D [H.264/1080p] [вертикальная анаморфная стереопара]
    Рейтинг →
     (голосов: 1, оценка 5/5, голосовать можно 1 раз )

    Другие торренты по теме:

  • Смолфут / Smallfoot (2018) HDRip [Line, AD]
  • Смолфут / Smallfoot (2018) BDRip [H.264 / 1080p-LQ] [EN / EN Sub] [PR]
  • Смолфут / Smallfoot (2018) BDRip 3D [H.264 / 1080p] [вертикальная анаморфная стереопара] [handmade 16:9]
  • Смолфут / Smallfoot (2018) BDRip
  • Смолфут / Smallfoot (2018) BDRip [H.264 / 1080p]
  • Смолфут / Smallfoot (2018) BDRemux [H.264 / 1080p]
  • Смолфут / Smallfoot (2018) BDRip [576p] iPad
  • Смолфут / Smallfoot (2018) BDRip [1080p] ATV


    • Комментарии (0):

      Информация

      Информация

        Посетители, находящиеся в группе Гости, не могут оставлять комментарии в данной новости.

        ↓ Меню




        ↓ Опрос

        Вы добавили сайт в закладки?
        Да
        Нет


        Top 10 за месяц (Мультфильмы)