.
Авторизация | Регистрация
Хочешь лучшие торренты? Добавь свой email!
Добавить

Торрент скачать бесплатно

  • support: webmaster@btracker.club
» » Новогодние приключения Маши и Вити (1975) DVDRip торрент скачать бесплатно


    Новогодние приключения Маши и Вити (1975) DVDRip торрент скачать бесплатно

    Опубликовал: fregat | Дата: 28-12-2018, 05:00 | .torrent скачали: 0

    Новогодние приключения Маши и Вити (1975) DVDRipПроизводство: СССР, Ленфильм
    Жанр: Приключения, Семейный, Сказка
    Режиссер: Игорь Усов, Геннадий Казанский

    Актеры
    Ирина Борисова, Михаил Боярский, Николай Боярский, Валентина Кособуцкая, Юрий Нахратов, Георгий Штил, Наталья Симонова, Борис Смолкин, Вера Титова, Любовь Виролайнен, Игорь Ефимов

    Описание фильма

    Все дети с нетерпением ждут веселый праздник Новый год: наряжают елку, готовят подарки, делают игрушки. Неожиданно приходит новость, что злой Кащей Бессмертный украл Снегурочку. Он не хочет, чтобы наступил Новый год, чтобы все радовались и смеялись. Что же делать? Как помочь Деду Морозу? Ведь он без своей внучки не справится. И вот два отважных школьника - Маша и Витя - решают найти Снегурочку и освободить ее из плена Кащея. А злодей, прознав про их план, подсылает к ним своих помощников - Бабу-Ягу, Лешего и Кота Матвея. Эта компания должна во что бы то ни стало остановить отважных мальчика и девочку...
    Фильм Новогодние приключения Маши и Вити - музыкальная сказка, где все персонажи поют. Этот фильм относится к той категории фильмов, без которых Новый год для многих детей не был бы полноценным Новым годом.

    Возраст: 6+ (зрителям, достигшим 6 лет)
    Дата выхода DVD релиза: 7 декабря 2010, Lizard Cinema Trade

    Продолжительность: 01: 06: 37
    Качество видео: DVDRip
    Перевод: Не требуется (русский )
    Субтитры: Отсутствуют
    Видео: DivX, 720x560, ~2 480 kpbs
    Аудио: AC-3, 6 ch, 448 kpbs
    Общее
    Полное имя : F: Done завершенныеNovogodnie.prikljuchenija.Mashi.i.Viti.1975.DVDRip.avi
    Формат : AVI
    Формат/Информация : Audio Video Interleave
    Размер файла : 1, 37 Гбайт
    Продолжительность : 1 ч. 6 м.
    Общий поток : 2935 Кбит/сек
    Программа кодирования : VirtualDubMod 1.5.4.1 (build 2178/release)
    Библиотека кодирования : VirtualDubMod build 2178/release
    Видео
    Идентификатор : 0
    Формат : MPEG-4 Visual
    Параметр BVOP формата : 1
    Параметр QPel формата : Нет
    Параметр GMC формата : Без точки перехода
    Параметр матрицы формата : Default (H.263)
    Режим смешивания : Сжатый битовый поток
    Идентификатор кодека : DX50
    Идентификатор кодека/Подсказка : DivX 5
    Продолжительность : 1 ч. 6 м.
    Битрейт : 2480 Кбит/сек
    Номинальный битрейт : 7800 Кбит/сек
    Ширина : 720 пикселей
    Высота : 560 пикселей
    Соотношение сторон : 1, 286
    Частота кадров : 25, 000 кадров/сек
    Цветовое пространство : YUV
    Субдискретизация насыщенности : 4: 2: 0
    Битовая глубина : 8 бит
    Тип развёртки : Прогрессивная
    Метод сжатия : С потерями
    Бит/(Пиксели*Кадры) : 0.246
    Размер потока : 1, 15 Гбайт (85%)
    Библиотека кодирования : DivX 6.7.0 (UTC 2007-09-20)
    Аудио
    Идентификатор : 1
    Формат : AC-3
    Формат/Информация : Audio Coding 3
    Параметр Endianness формата : Big
    Идентификатор кодека : 2000
    Продолжительность : 1 ч. 6 м.
    Вид битрейта : Постоянный
    Битрейт : 448 Кбит/сек
    Каналы : 6 каналов
    Расположение каналов : Front: L C R, Side: L R, LFE
    Частота : 48, 0 КГц
    Частота кадров : 31, 250 кадров/сек (1536 spf)
    Битовая глубина : 16 бит
    Метод сжатия : С потерями
    Размер потока : 213 Мбайт (15%)
    Выравнивание : Разделение по промежуткам
    Продолжительность промежутка : 96 мс. (2, 40 видеокадра)
    Время предзагрузки промежутка : 96 мс.
    Язык : Russian
    ServiceKind/String : Complete Main

    Скриншоты для ознакомления

    Все одноименные релизы в Клубе
    Реставрация 27.12.2018 от: SanKar52


    Онлайн видео Евгения Диц



    Новогодние приключения Маши и Вити (1975) DVDRip
    Рейтинг →
     (голосов: 1, оценка 5/5, голосовать можно 1 раз )

    Другие торренты по теме:

  • Новогодние приключения Маши и Вити (1975) HDTVRip [H.264] [MP4|760x574@712x574]


    • Комментарии (0):

      Информация

      Информация

        Посетители, находящиеся в группе Гости, не могут оставлять комментарии в данной новости.

        ↓ Меню




        ↓ Опрос

        Вы добавили сайт в закладки?
        Да
        Нет


        Top 10 за месяц (Мультфильмы)