.
Авторизация | Регистрация
Хочешь лучшие торренты? Добавь свой email!
Добавить

Торрент скачать бесплатно

  • support: webmaster@btracker.club
» » Обитатели холмов / Watership Down (2018) WEB-DLRip (сезон 1, серии 1-4 из 4) торрент скачать бесплатно


    Обитатели холмов / Watership Down (2018) WEB-DLRip (сезон 1, серии 1-4 из 4) торрент скачать бесплатно

    Опубликовал: fregat | Дата: 27-12-2018, 05:00 | .torrent скачали: 0

    Обитатели холмов / Watership Down (2018) WEB-DLRip (сезон 1, серии 1-4 из 4)Производство: Ирландия, Великобритания, США/Biscuit Ent., ITV Studios, BBC
    Жанр: мультфильм, фэнтези, боевик, драма, приключения
    Режиссер: Ноам Мурро
    Продюсер: Дипали Бханушали, Эллисон Чарльз, Джорджия Дюссо

    Описание

    Это история о семействе кроликов, который ищут себе новый дом после того, как одному из них приснился кошмарный сон о приближающейся катастрофе.

    Дата мировой премьеры: 22 декабря 2018
    Продолжительность: ~ 00: 52: 00 серия
    Качество видео: WEB-DLRip
    Перевод: Дублированный
    Субтитры: отсутствуют
    Видео: Xvid, 720x404, ~1729 Kbps
    Аудио: AC3, 2 ch, 192 Kbps

    Общее
    Полное имя : D: FILMЬlОбитатели холмов (1 сезон любимого сериала)1_The Journey.avi
    Формат : AVI
    Формат/Информация : Audio Video Interleave
    Размер файла : 736 Мбайт
    Продолжительность : 53 м. 17 с.
    Общий поток : 1932 Кбит/сек
    Программа кодирования : Lavf58.20.100
    Видео
    Идентификатор : 0
    Формат : MPEG-4 Visual
    Профиль формата : Advanced Simple@L5
    Настройки формата : BVOP1
    Параметр BVOP формата : 1
    Параметр QPel формата : Нет
    Параметр GMC формата : Без точки перехода
    Параметр матрицы формата : Default (H.263)
    Идентификатор кодека : XVID
    Идентификатор кодека/Подсказка : XviD
    Продолжительность : 53 м. 16 с.
    Битрейт : 1729 Кбит/сек
    Ширина : 720 пикселей
    Высота : 404 пикселя
    Соотношение сторон : 2, 000
    Частота кадров : 24, 000 кадра/сек
    Цветовое пространство : YUV
    Субдискретизация насыщенности : 4: 2: 0
    Битовая глубина : 8 бит
    Тип развёртки : Прогрессивная
    Метод сжатия : С потерями
    Бит/(Пиксели*Кадры) : 0.248
    Размер потока : 659 Мбайт (90%)
    Библиотека кодирования : XviD 67
    Аудио
    Идентификатор : 1
    Формат : AC-3
    Формат/Информация : Audio Coding 3
    Коммерческое название : Dolby Digital
    Идентификатор кодека : 2000
    Продолжительность : 53 м. 17 с.
    Вид битрейта : Постоянный
    Битрейт : 192 Кбит/сек
    Каналы : 2 канала
    Channel layout : L R
    Частота : 48, 0 КГц
    Частота кадров : 31, 250 кадров/сек (1536 SPF)
    Битовая глубина : 16 бит
    Метод сжатия : С потерями
    Размер потока : 73, 2 Мбайт (10%)
    Выравнивание : Соединение по промежуткам
    Продолжительность промежутка : 32 мс. (0, 77 видеокадр)
    ServiceKind/String : Complete Main

    Скриншоты для ознакомления



    Все одноименные релизы в Клубе
    Время раздачи: с 09: 00 до 23: 30 (до появления первых 3-5 скачавших)


    Онлайн видео Обитатели холмов



    Обитатели холмов/Watership Down (2018) WEB-DLRip (сезон 1, серии 1-4 из 4)
    Рейтинг →
     (голосов: 1, оценка 5/5, голосовать можно 1 раз )

    Другие торренты по теме:

  • Обитатели холмов / Watership Down (2018) WEB-DL [H.264 / 720p-LQ] (сезон 1, серии 1-4 из 4)


    • Комментарии (0):

      Информация

      Информация

        Посетители, находящиеся в группе Гости, не могут оставлять комментарии в данной новости.

        ↓ Меню




        ↓ Опрос

        Вы добавили сайт в закладки?
        Да
        Нет


        Top 10 за месяц (Мультфильмы)