.
Авторизация | Регистрация

Торрент скачать бесплатно

  • support: webmaster@btracker.club
» » Обитатели холмов / Watership Down (2018) WEB-DL [H.264 / 720p-LQ] (сезон 1, серии 1-4 из 4) торрент скачать бесплатно


    Обитатели холмов / Watership Down (2018) WEB-DL [H.264 / 720p-LQ] (сезон 1, серии 1-4 из 4) торрент скачать бесплатно

    Дата: 27-12-2018, 05:00 | .torrent скачали: 0

    Обитатели холмов / Watership Down (2018) WEB-DL [H.264 / 720p-LQ] (сезон 1, серии 1-4 из 4)Производство: Ирландия, Великобритания, США/Biscuit Ent., ITV Studios, BBC
    Жанр: мультфильм, фэнтези, боевик, драма, приключения
    Режиссер: Ноам Мурро
    Продюсер: Дипали Бханушали, Эллисон Чарльз, Джорджия Дюссо

    Описание

    Это история о семействе кроликов, который ищут себе новый дом после того, как одному из них приснился кошмарный сон о приближающейся катастрофе.

    Дата мировой премьеры: 22 декабря 2018
    Продолжительность: ~ 00: 52: 00 серия
    Качество видео: WEB-DL
    Перевод: Дублированный
    Субтитры: Английские, английские (SDH), испанские, французские
    Видео: AVC/H.264, 1280x720, ~2948 Kbps
    Аудио 1: АAC, 2 ch, 192 Kbps | русский
    Аудио 2: EAC3, 6 ch, 640 Kbps | английский

    Общее
    Уникальный идентификатор : 26350405651001053609010682441819514857 (0x13D2E74DAD37D041EE8379AAF30067E9)
    Полное имя : D: FILMЬlОбитатели холмов.720P (1 сезон любимого сериала)Watership.Down.2018.S01E01.The.Journey.720p.mkv
    Формат : Matroska
    Версия формата : Version 4
    Размер файла : 1, 36 Гбайт
    Продолжительность : 53 м. 17 с.
    Режим общего битрейта : Переменный
    Общий поток : 3652 Кбит/сек
    Дата кодирования : UTC 2018-12-26 09: 52: 07
    Программа кодирования : mkvmerge v28.2.0 (\'The Awakening\') 64-bit
    Библиотека кодирования : libebml v1.3.6 + libmatroska v1.4.9
    Видео
    Идентификатор : 1
    Формат : AVC
    Формат/Информация : Advanced Video Codec
    Профиль формата : Main@L3.1
    Настройки формата : CABAC/3 Ref Frames
    Параметр CABAC формата : Да
    Параметр RefFrames формата : 3 кадра
    Идентификатор кодека : V_MPEG4/ISO/AVC
    Продолжительность : 53 м. 16 с.
    Вид битрейта : Переменный
    Битрейт : 2948 Кбит/сек
    Номинальный битрейт : 3160 Кбит/сек
    Максимальный битрейт : 4740 Кбит/сек
    Ширина : 1280 пикселей
    Высота : 720 пикселей
    Соотношение сторон : 16: 9
    Режим частоты кадров : Постоянный
    Частота кадров : 24, 000 кадра/сек
    Цветовое пространство : YUV
    Субдискретизация насыщенности : 4: 2: 0
    Битовая глубина : 8 бит
    Тип развёртки : Прогрессивная
    Бит/(Пиксели*Кадры) : 0.133
    Размер потока : 1, 10 Гбайт (81%)
    Библиотека кодирования : x264 core 148 r2715 7e75228
    Настройки программы : cabac=1/ref=3/deblock=1: 0: 0/analyse=0x1: 0x111/me=umh/subme=10/psy=1/psy_rd=1.00: 0.00/mixed_ref=1/me_range=24/chroma_me=1/trellis=2/8x8dct=0/cqm=0/deadzone=21, 11/fast_pskip=1/chroma_qp_offset=-2/threads=6/lookahead_threads=1/sliced_threads=0/nr=0/decimate=1/interlaced=0/bluray_compat=0/stitchable=1/constrained_intra=0/bframes=2/b_pyramid=0/b_adapt=2/b_bias=0/direct=3/weightb=1/open_gop=0/weightp=2/keyint=50/keyint_min=26/scenecut=0/intra_refresh=0/rc_lookahead=50/rc=2pass/mbtree=1/bitrate=3160/ratetol=1.0/qcomp=0.50/qpmin=6/qpmax=51/qpstep=4/cplxblur=20.0/qblur=0.5/vbv_maxrate=4740/vbv_bufsize=6320/nal_hrd=vbr/filler=0/ip_ratio=1.40/aq=1: 1.00
    Default : Да
    Forced : Нет
    Аудио #1
    Идентификатор : 2
    Формат : AAC LC
    Формат/Информация : Advanced Audio Codec Low Complexity
    Идентификатор кодека : A_AAC-2
    Продолжительность : 53 м. 17 с.
    Битрейт : 87, 0 Кбит/сек
    Каналы : 2 канала
    Channel layout : L R
    Частота : 48, 0 КГц
    Частота кадров : 46, 875 кадров/сек (1024 SPF)
    Метод сжатия : С потерями
    Размер потока : 33, 2 Мбайт (2%)
    Язык : Russian
    Default : Да
    Forced : Нет
    Аудио #2
    Идентификатор : 3
    Формат : E-AC-3
    Формат/Информация : Enhanced AC-3
    Коммерческое название : Dolby Digital Plus
    Идентификатор кодека : A_EAC3
    Продолжительность : 51 м. 8 с.
    Вид битрейта : Постоянный
    Битрейт : 640 Кбит/сек
    Каналы : 6 каналов
    Channel layout : L R C LFE Ls Rs
    Частота : 48, 0 КГц
    Частота кадров : 31, 250 кадров/сек (1536 SPF)
    Метод сжатия : С потерями
    Размер потока : 234 Мбайт (17%)
    Заголовок : English
    Язык : English
    ServiceKind/String : Complete Main
    Default : Нет
    Forced : Нет
    Текст #1
    Идентификатор : 4
    Формат : UTF-8
    Идентификатор кодека : S_TEXT/UTF8
    Идентификатор кодека/Информация : UTF-8 Plain Text
    Продолжительность : 48 м. 39 с.
    Битрейт : 64 бит/сек
    ElementCount : 581
    Размер потока : 23, 0 Кбайт (0%)
    Язык : English
    Default : Нет
    Forced : Нет
    Текст #2
    Идентификатор : 5
    Формат : UTF-8
    Идентификатор кодека : S_TEXT/UTF8
    Идентификатор кодека/Информация : UTF-8 Plain Text
    Продолжительность : 48 м. 39 с.
    Битрейт : 78 бит/сек
    ElementCount : 740
    Размер потока : 27, 9 Кбайт (0%)
    Заголовок : SDH
    Язык : English
    Default : Нет
    Forced : Нет
    Текст #3
    Идентификатор : 6
    Формат : UTF-8
    Идентификатор кодека : S_TEXT/UTF8
    Идентификатор кодека/Информация : UTF-8 Plain Text
    Продолжительность : 48 м. 48 с.
    Битрейт : 58 бит/сек
    ElementCount : 604
    Размер потока : 21, 0 Кбайт (0%)
    Язык : Spanish
    Default : Нет
    Forced : Нет
    Текст #4
    Идентификатор : 7
    Формат : UTF-8
    Идентификатор кодека : S_TEXT/UTF8
    Идентификатор кодека/Информация : UTF-8 Plain Text
    Продолжительность : 48 м. 48 с.
    Битрейт : 60 бит/сек
    ElementCount : 590
    Размер потока : 21, 6 Кбайт (0%)
    Язык : French
    Default : Нет
    Forced : Нет

    Скриншоты для ознакомления



    Все одноименные релизы в Клубе
    Время раздачи: с 09: 00 до 23: 30 (до появления первых 3-5 скачавших)


    Онлайн видео Обитатели холмов



    Обитатели холмов/ Watership Down (2018) WEB-DL [H.264/720p-LQ] (сезон 1, серии 1-4 из 4)
    Рейтинг →
     (голосов: 1, оценка 4/5, голосовать можно 1 раз )

    Другие торренты по теме:

  • Обитатели холмов / Watership Down (2018) WEB-DLRip (сезон 1, серии 1-4 из 4)


    • Комментарии (0):

      Информация

      Информация

        Посетители, находящиеся в группе Гости, не могут оставлять комментарии в данной новости.

        ↓ Меню




        ↓ Опрос

        Вы добавили сайт в закладки?
        Да
        Нет


        Top 10 за месяц (Мультфильмы)

        Оранжевая корова (2018-2019) WEB-DLRip [H.264 / 720p-LQ] (сезон 1, серии 1-3 из 20)

        (скачиваний: 278)
        Три кота (2018) WEB-DLRip [H.264 / 720p-LQ] (сезон 3, серии 105-106 из 156)

        (скачиваний: 161)
        Рик и Морти / Rick and Morty (2015) WEB-DL [H.264 / 1080p] (Сезон 2, серии 1-10 из 10) Сыендук [EN / RU Sub] скачать через торрент бесплатно

        (скачиваний: 155)
        Лунтик и его друзья (2013-2017) WEB-DLRip 7,8,9 сезон (390-488 серии)[Обновляемая]

        (скачиваний: 96)
        Роботы-поезда / Robot Trains (2017) WEB-DL [H.264 / 720p-LQ] (1 сезон, 32 серий из 32)

        (скачиваний: 94)
        Футурама / Futurama (1999-2013) DVDRip (7 Сезонов, 140 серии) скачать через торрент бесплатно

        (скачиваний: 89)
        МиниФорс X / MiniForce X (2019) WEB-DLRip [H.264 / 720p-LQ] (сезон 2, серии 1-26 из 52) [Обновляемая]

        (скачиваний: 82)
        Космический рубеж / Final Space (2018) WEB-DLRip [H.264 / 1080p] (Сезон 1, Серии 10 из 10) Кубик в Кубе

        (скачиваний: 73)
        Расти-механик / Rusty Rivets (2016) WEB-DL [H.264] (Серии 1-23)

        (скачиваний: 67)
        МУЛЬТ в кино. Выпуск 66: Новогодние каникулы (2018) WEB-DLRip [H.264 / 720p-LQ]

        (скачиваний: 63)