.
Авторизация | Регистрация
Хочешь лучшие торренты? Добавь свой email!
Добавить

Торрент скачать бесплатно

  • support: webmaster@btracker.club
» » Белый клык 2: Легенда о белом волке / White Fang 2: Myth of the White Wolf (1994) WEB-DLRip [H.264] [Open Matte] торрент скачать бесплатно


    Белый клык 2: Легенда о белом волке / White Fang 2: Myth of the White Wolf (1994) WEB-DLRip [H.264] [Open Matte] торрент скачать бесплатно

    Опубликовал: fregat | Дата: 26-12-2018, 05:00 | .torrent скачали: 0

    Белый клык 2: Легенда о белом волке / White Fang 2: Myth of the White Wolf (1994) WEB-DLRip [H.264] [Open Matte]Производство: США/Walt Disney Pictures
    Жанр: Приключения, семейный, экранизация
    Режиссер: Кен Олин

    Актеры
    Скотт Бэйрстоу, Чармэйн Крэйг, Эл Харигтон, Энтони Руививар, Альфред Молина, Пол Койер, Джеффри Льюис, Мэттью Коулз, Вудроу В. Моррисон, Рейнолд Русс, Натан Янг, Эдвард Дэвис

    Описание

    На Диком Западе издавна существовала легенда о белом волке. Никто не мог разгадать этот миф. Но когда древнее индейское племя попало в беду, и золотоискатель Генри со своим псом по кличке Белый Клык встал на его защиту, таинственное предание воплощается в реальность…

    Возраст: 12+ (зрителям, достигшим 12 лет)
    Рейтинг MPAA: PG (рекомендуется присутствие родителей)
    Релиз от: RA3WA NNMClub
    Продолжительность: 01: 46: 08
    Качество видео: WEB-DLRip (AVC)
    Перевод: Многоголосый, закадровый профессиональный, авторский
    Субтитры: Английские (Full, SDH), немецкие (Full)
    Видео: AVC/H.264, 1024x576, ~2295 Kbps
    Аудио #1: AC3, 2 ch, 192 Kbps - MVO (ОРТ)
    Аудио #2: AC3, 2 ch, 192 Kbps - AVO (В. Горчаков)
    Аудио #3: AC3, 6 ch, 384 Kbps - Английский

    Общее
    Уникальный идентификатор : 212461648822420839747435391539193266435 (0x9FD6A009D63C52399A4750A372FF4103)
    Полное имя : E: NNMБелый Клык 2White Fang-2 1991 WEB-DLRip-AVC Open Matte NNMClub.mkv
    Формат : Matroska
    Версия формата : Version 4/Version 2
    Размер файла : 2, 27 Гбайт
    Продолжительность : 1 ч. 46 м.
    Общий поток : 3065 Кбит/сек
    Название фильма : For NNMClub
    Дата кодирования : UTC 2018-12-25 06: 57: 55
    Программа кодирования : mkvmerge v6.9.1 (\'Blue Panther\') 32bit built on Apr 18 2014 18: 15: 44
    Библиотека кодирования : libebml v1.3.0 + libmatroska v1.4.1
    Видео
    Идентификатор : 1
    Формат : AVC
    Формат/Информация : Advanced Video Codec
    Профиль формата : High@L4.1
    Настройки формата : CABAC/12 Ref Frames
    Параметр CABAC формата : Да
    Параметр RefFrames формата : 12 кадров
    Идентификатор кодека : V_MPEG4/ISO/AVC
    Продолжительность : 1 ч. 46 м.
    Битрейт : 2295 Кбит/сек
    Ширина : 1024 пикселя
    Высота : 576 пикселей
    Соотношение сторон : 16: 9
    Режим частоты кадров : Постоянный
    Частота кадров : 23, 976 (23976/1000) кадра/сек
    Цветовое пространство : YUV
    Субдискретизация насыщенности : 4: 2: 0
    Битовая глубина : 8 бит
    Тип развёртки : Прогрессивная
    Бит/(Пиксели*Кадры) : 0.162
    Размер потока : 1, 66 Гбайт (73%)
    Библиотека кодирования : x264 core 146 r2538 121396c
    Настройки программы : cabac=1/ref=12/deblock=1: -3: -3/analyse=0x3: 0x113/me=umh/subme=11/psy=1/psy_rd=1.00: 0.15/mixed_ref=1/me_range=32/chroma_me=1/trellis=2/8x8dct=1/cqm=0/deadzone=21, 11/fast_pskip=0/chroma_qp_offset=-3/threads=12/lookahead_threads=2/sliced_threads=0/nr=0/decimate=0/interlaced=0/bluray_compat=0/constrained_intra=0/bframes=10/b_pyramid=2/b_adapt=2/b_bias=0/direct=1/weightb=1/open_gop=0/weightp=2/keyint=240/keyint_min=23/scenecut=40/intra_refresh=0/rc_lookahead=40/rc=2pass/mbtree=0/bitrate=2295/ratetol=1.0/qcomp=0.60/qpmin=0/qpmax=69/qpstep=4/cplxblur=20.0/qblur=0.5/vbv_maxrate=50000/vbv_bufsize=62500/nal_hrd=none/filler=0/ip_ratio=1.40/pb_ratio=1.30/aq=1: 0.90
    Default : Да
    Forced : Нет
    Аудио #1
    Идентификатор : 2
    Формат : AC-3
    Формат/Информация : Audio Coding 3
    Идентификатор кодека : A_AC3
    Продолжительность : 1 ч. 46 м.
    Вид битрейта : Постоянный
    Битрейт : 192 Кбит/сек
    Каналы : 2 канала
    Расположение каналов : Front: L R
    Частота : 48, 0 КГц
    Частота кадров : 31, 250 кадров/сек (1536 SPF)
    Битовая глубина : 16 бит
    Метод сжатия : С потерями
    Размер потока : 146 Мбайт (6%)
    Заголовок : MVO | ОРТ
    Язык : Russian
    ServiceKind/String : Complete Main
    Default : Да
    Forced : Нет
    Аудио #2
    Идентификатор : 3
    Формат : AC-3
    Формат/Информация : Audio Coding 3
    Идентификатор кодека : A_AC3
    Продолжительность : 1 ч. 46 м.
    Вид битрейта : Постоянный
    Битрейт : 192 Кбит/сек
    Каналы : 2 канала
    Расположение каналов : Front: L R
    Частота : 48, 0 КГц
    Частота кадров : 31, 250 кадров/сек (1536 SPF)
    Битовая глубина : 16 бит
    Метод сжатия : С потерями
    Размер потока : 146 Мбайт (6%)
    Заголовок : AVO | В. Горчаков
    Язык : Russian
    ServiceKind/String : Complete Main
    Default : Нет
    Forced : Нет
    Аудио #3
    Идентификатор : 4
    Формат : AC-3
    Формат/Информация : Audio Coding 3
    Идентификатор кодека : A_AC3
    Продолжительность : 1 ч. 46 м.
    Вид битрейта : Постоянный
    Битрейт : 384 Кбит/сек
    Каналы : 6 каналов
    Расположение каналов : Front: L C R, Side: L R, LFE
    Частота : 48, 0 КГц
    Частота кадров : 31, 250 кадров/сек (1536 SPF)
    Битовая глубина : 16 бит
    Метод сжатия : С потерями
    Размер потока : 292 Мбайт (13%)
    Язык : English
    ServiceKind/String : Complete Main
    Default : Нет
    Forced : Нет
    Текст #1
    Идентификатор : 5
    Формат : UTF-8
    Идентификатор кодека : S_TEXT/UTF8
    Идентификатор кодека/Информация : UTF-8 Plain Text
    Язык : English
    Default : Нет
    Forced : Нет
    Текст #2
    Идентификатор : 6
    Формат : UTF-8
    Идентификатор кодека : S_TEXT/UTF8
    Идентификатор кодека/Информация : UTF-8 Plain Text
    Заголовок : SDH
    Язык : English
    Default : Нет
    Forced : Нет
    Текст #3
    Идентификатор : 7
    Формат : UTF-8
    Идентификатор кодека : S_TEXT/UTF8
    Идентификатор кодека/Информация : UTF-8 Plain Text
    Язык : German
    Default : Нет
    Forced : Нет
    Меню
    00: 00: 00.000 : en: Chapter 01
    00: 11: 22.328 : en: Chapter 02
    00: 21: 22.328 : en: Chapter 03
    00: 30: 06.328 : en: Chapter 04
    00: 41: 40.328 : en: Chapter 05
    00: 56: 41.328 : en: Chapter 06
    01: 08: 01.328 : en: Chapter 07
    01: 19: 34.328 : en: Chapter 08
    01: 34: 30.328 : en: Chapter 09
    01: 43: 00.328 : en: Chapter 10

    Скриншоты для ознакомления



    Все одноименные релизы в Клубе Время раздачи: 24/7 (до появления первых 3-5 скачавших)


    Онлайн видео Белый клык 2: Легенда о белом волке



    Белый клык 2: Легенда о белом волке/White Fang 2: Myth of the White Wolf (1994) WEB-DLRip [H.264] [Open Matte]
    Рейтинг →
     (голосов: 1, оценка 5/5, голосовать можно 1 раз )

    Другие торренты по теме:

  • Белый клык / Zanna Bianca (1973) DVDRip скачать через торрент бесплатно
  • Белый клык / White Fang (1991) DVD5
  • Белый клык / White Fang (1991) DVDRip [H.264]
  • Белый клык / White Fang (1991) WEB-DL [H.264 / 720p]
  • Белый клык 2: Легенда о белом волке / White Fang 2: Myth of the White Wolf (1994) WEB-DL [H.264 / 720p]
  • Белый клык / Croc-Blanc (2018) WEB-DLRip [EN / RU, EN Sub]
  • Белый клык / Croc-Blanc (2018) WEB-DL [H.264 / 1080p-LQ] [EN / RU, EN Sub]
  • Белый клык / Croc-Blanc (2018) WEBRip [H.264 / 720p-LQ] [MVO] [AD]


    • Комментарии (0):

      Информация

      Информация

        Посетители, находящиеся в группе Гости, не могут оставлять комментарии в данной новости.

        ↓ Меню




        ↓ Опрос

        Вы добавили сайт в закладки?
        Да
        Нет


        Top 10 за месяц (Мультфильмы)