.
Авторизация | Регистрация

Торрент скачать бесплатно

  • support: webmaster@btracker.club
» » Возвращение (1980) TVRip торрент скачать бесплатно


    Возвращение (1980) TVRip торрент скачать бесплатно

    Дата: 26-12-2018, 05:00 | .torrent скачали: 2

    Возвращение (1980) TVRipПроизводство: СССР, Союзмультфильм
    Жанр: мультфильм, короткометражка
    Режиссер: Владимир Тарасов

    Описание

    Подходит к концу космическое путешествие, перед посадкой Космонавт крепко засыпает. Он не слышит сигналы с Земли. Надвигается катастрофа. Когда корабль пролетает над родным домом Космонавта, раздается звон Будильника, заведенного Дедом и Космонавт просыпается.

    Возраст: 6+ (зрителям, достигшим 6 лет)
    Продолжительность: 00: 09: 59
    Качество видео: TVRip
    Субтитры: отсутствуют
    Видео: MPEG4, XviD, 640x480, 25.000 fps, 2 660 Kbps
    Аудио: MP3, 48.0 KHz, 2 ch, 128 Kbps, CBR

    Общее
    Полное имя : C: UsersComputerDesktopВозвращение Союзмультфильм, 1980 г.avi
    Формат : AVI
    Формат/Информация : Audio Video Interleave
    Размер файла : 200 Мбайт
    Продолжительность : 9 м. 59 с.
    Общий поток : 2798 Кбит/сек
    Название фильма : Возвращение.
    Режиссёр : agor
    Программа кодирования : VirtualDubMod 1.5.10.1 (build 2439/release)
    Библиотека кодирования : VirtualDubMod build 2439/release
    Формат оригинала/Имя : Cartoon
    Видео
    Идентификатор : 0
    Формат : MPEG-4 Visual
    Профиль формата : Advanced Simple@L5
    Параметр BVOP формата : 2
    Параметр QPel формата : Нет
    Параметр GMC формата : Без точки перехода
    Параметр матрицы формата : Default (MPEG)
    Идентификатор кодека : XVID
    Идентификатор кодека/Подсказка : XviD
    Продолжительность : 9 м. 59 с.
    Битрейт : 2660 Кбит/сек
    Ширина : 640 пикселей
    Высота : 480 пикселей
    Соотношение сторон : 4: 3
    Частота кадров : 25, 000 кадров/сек
    Цветовое пространство : YUV
    Субдискретизация насыщенности : 4: 2: 0
    Битовая глубина : 8 бит
    Тип развёртки : Прогрессивная
    Метод сжатия : С потерями
    Бит/(Пиксели*Кадры) : 0.346
    Размер потока : 190 Мбайт (95%)
    Библиотека кодирования : XviD 1.1.2 (UTC 2006-11-01)
    Аудио
    Идентификатор : 1
    Формат : MPEG Audio
    Версия формата : Version 1
    Профиль формата : Layer 3
    Режим : Joint stereo
    Расширение режима : MS Stereo
    Идентификатор кодека : 55
    Идентификатор кодека/Подсказка : MP3
    Продолжительность : 9 м. 59 с.
    Вид битрейта : Постоянный
    Битрейт : 128 Кбит/сек
    Каналы : 2 канала
    Частота : 48, 0 КГц
    Метод сжатия : С потерями
    Размер потока : 9, 15 Мбайт (5%)
    Выравнивание : Соединение по промежуткам
    Продолжительность промежутка : 40 мс. (1, 00 видеокадр)
    Время предзагрузки промежутка : 504 мс.

    Скриншоты для ознакомления



    Все одноименные релизы в Клубе
    Время раздачи: Пн-Пт с 18: 00 до 22: 00, Сб-Вс с 09: 00 до 23: 30 (до появления первых 3-5 скачавших)


    Онлайн видео Джим Пуговка и машинист Лукас



    Возвращение (1980) TVRip
    Рейтинг →
     (голосов: 1, оценка 3/5, голосовать можно 1 раз )

    Другие торренты по теме:

  • Возвращение в А (2011) TVRip скачать через торрент бесплатно
  • Белые росы. Возвращение (2014) TVRip скачать через торрент бесплатно
  • Возвращение в Зурбаган (1990) TVRip
  • Возвращение сына (1977) TVRip


    • Комментарии (0):

      Информация

      Информация

        Посетители, находящиеся в группе Гости, не могут оставлять комментарии в данной новости.

        ↓ Меню




        ↓ Опрос

        Вы добавили сайт в закладки?
        Да
        Нет


        Top 10 за месяц (Мультфильмы)

        Оранжевая корова (2018-2019) WEB-DLRip [H.264 / 720p-LQ] (сезон 1, серии 1-3 из 20)

        (скачиваний: 269)
        Три кота (2018) WEB-DLRip [H.264 / 720p-LQ] (сезон 3, серии 105-106 из 156)

        (скачиваний: 159)
        Рик и Морти / Rick and Morty (2015) WEB-DL [H.264 / 1080p] (Сезон 2, серии 1-10 из 10) Сыендук [EN / RU Sub] скачать через торрент бесплатно

        (скачиваний: 154)
        Лунтик и его друзья (2013-2017) WEB-DLRip 7,8,9 сезон (390-488 серии)[Обновляемая]

        (скачиваний: 93)
        Роботы-поезда / Robot Trains (2017) WEB-DL [H.264 / 720p-LQ] (1 сезон, 32 серий из 32)

        (скачиваний: 92)
        Футурама / Futurama (1999-2013) DVDRip (7 Сезонов, 140 серии) скачать через торрент бесплатно

        (скачиваний: 84)
        МиниФорс X / MiniForce X (2019) WEB-DLRip [H.264 / 720p-LQ] (сезон 2, серии 1-26 из 52) [Обновляемая]

        (скачиваний: 82)
        Расти-механик / Rusty Rivets (2016) WEB-DL [H.264] (Серии 1-23)

        (скачиваний: 66)
        Космический рубеж / Final Space (2018) WEB-DLRip [H.264 / 1080p] (Сезон 1, Серии 10 из 10) Кубик в Кубе

        (скачиваний: 65)
        Пластилинки. Циферки (2018-2019) WEB-DLRip [H.264 / 720p-LQ] (сезон 1, серии 1-6 из 10)

        (скачиваний: 62)