.
Авторизация | Регистрация

Торрент скачать бесплатно

  • support: webmaster@btracker.club
» » Джим Пуговка и машинист Лукас / Jim Knopf und Lukas der Lokomotivfuhrer (2018) BDRip [H.264 / 1080p] торрент скачать бесплатно


    Джим Пуговка и машинист Лукас / Jim Knopf und Lukas der Lokomotivfuhrer (2018) BDRip [H.264 / 1080p] торрент скачать бесплатно

    Дата: 26-12-2018, 05:00 | .torrent скачали: 0

    Джим Пуговка и машинист Лукас / Jim Knopf und Lukas der Lokomotivfuhrer (2018) BDRip [H.264 / 1080p]Производство: Германия/Rat Pack Filmproduktion, Malao Film, Studio Babelsberg
    Жанр: Фэнтези, Приключения, Семейный
    Режиссер: Деннис Ганзель

    Актеры
    Хеннинг Баум, Као Ченмин, Энди Чунг, Тадаси Эндо, Лейганн Эсперанцате, Аннета Фрир, Томас Фритш, Соломон Гордон, Эден Гоф, Михаэль Хербиг

    Описание

    Волшебная страна Медландия расположена на острове. Сюда почтальон доставляет посылку c маленьким мальчиком. Он вырастает в храброго искателя приключений. На поезде-вездеходе Джим отправляется через океан и пустыню в город Драконов, чтобы спасти принцессу.

    Возраст: 6+ (зрителям, достигшим 6 лет)
    Дата мировой премьеры: 29 марта 2018
    Дата российской премьеры: 28 июня 2018, Capella Film
    Релиз от: Селезень
    Продолжительность: 01: 49: 53
    Качество видео: BDRip
    Перевод: Дублированный (iTunes )
    Субтитры: Отсутствуют
    Видео: AVC/H.264, 1920x800, ~11, 5 Mbps
    Аудио #1: AC3, 6 ch, 384 Kbps | Русский (DUB, iTunes)
    Аудио #2: AC3, 6 ch, 640 Kbps | Немецкий

    Общее
    Уникальный идентификатор : 98625897524943115840564104329637285734 (0x4A32A82CCBD295265B07CC99994A4F66)
    Полное имя : C: UsersUserDesktopNNMClubJim.Button.and.Luke.the.Engine.Driver.2018.BDRip.1080p.seleZen.mkv
    Формат : Matroska
    Версия формата : Version 4
    Размер файла : 9, 57 Гбайт
    Продолжительность : 1 ч. 49 м.
    Общий поток : 12, 5 Мбит/сек
    Название фильма : Jim Button and Luke the Engine Driver 2018 from селезень
    Дата кодирования : UTC 2018-12-25 11: 32: 42
    Программа кодирования : mkvmerge v29.0.0 (\'Like It Or Not\') 64-bit
    Библиотека кодирования : libebml v1.3.6 + libmatroska v1.4.9
    Видео
    Идентификатор : 1
    Формат : AVC
    Формат/Информация : Advanced Video Codec
    Профиль формата : High@L4.1
    Настройки формата : CABAC/5 Ref Frames
    Параметр CABAC формата : Да
    Параметр RefFrames формата : 5 кадров
    Идентификатор кодека : V_MPEG4/ISO/AVC
    Продолжительность : 1 ч. 49 м.
    Битрейт : 11, 5 Мбит/сек
    Ширина : 1920 пикселей
    Высота : 800 пикселей
    Соотношение сторон : 2, 40: 1
    Режим частоты кадров : Постоянный
    Частота кадров : 23, 976 (24000/1001) кадра/сек
    Цветовое пространство : YUV
    Субдискретизация насыщенности : 4: 2: 0
    Битовая глубина : 8 бит
    Тип развёртки : Прогрессивная
    Бит/(Пиксели*Кадры) : 0.311
    Размер потока : 8, 59 Гбайт (90%)
    Заголовок : seleZen
    Библиотека кодирования : x264 core 148 r2705kMod 3f5ed56
    Настройки программы : cabac=1/ref=5/deblock=1: -2: -2/analyse=0x3: 0x133/me=umh/subme=11/psy=1/fade_compensate=0.00/psy_rd=1.05: 0.06/mixed_ref=1/me_range=48/chroma_me=1/trellis=2/8x8dct=1/cqm=0/deadzone=21, 11/fast_pskip=0/chroma_qp_offset=-3/threads=12/lookahead_threads=2/sliced_threads=0/nr=0/decimate=0/interlaced=0/bluray_compat=0/constrained_intra=0/fgo=0/bframes=8/b_pyramid=2/b_adapt=2/b_bias=0/direct=3/weightb=1/open_gop=0/weightp=2/keyint=240/keyint_min=23/scenecut=40/intra_refresh=0/rc_lookahead=50/rc=2pass/mbtree=0/bitrate=11459/ratetol=1.0/qcomp=0.60/qpmin=0/qpmax=51/qpstep=4/cplxblur=20.0/qblur=0.5/vbv_maxrate=50000/vbv_bufsize=62500/nal_hrd=none/filler=0/ip_ratio=1.40/pb_ratio=1.30/aq=3: 0.80
    Язык : English
    Default : Да
    Forced : Нет
    Аудио #1
    Идентификатор : 2
    Формат : AC-3
    Формат/Информация : Audio Coding 3
    Коммерческое название : Dolby Digital
    Идентификатор кодека : A_AC3
    Продолжительность : 1 ч. 49 м.
    Вид битрейта : Постоянный
    Битрейт : 384 Кбит/сек
    Каналы : 6 каналов
    Channel layout : L R C LFE Ls Rs
    Частота : 48, 0 КГц
    Частота кадров : 31, 250 кадров/сек (1536 SPF)
    Битовая глубина : 16 бит
    Метод сжатия : С потерями
    Размер потока : 302 Мбайт (3%)
    Заголовок : iTunes
    Язык : Russian
    ServiceKind/String : Complete Main
    Default : Да
    Forced : Да
    Аудио #2
    Идентификатор : 3
    Формат : AC-3
    Формат/Информация : Audio Coding 3
    Коммерческое название : Dolby Digital
    Идентификатор кодека : A_AC3
    Продолжительность : 1 ч. 49 м.
    Вид битрейта : Постоянный
    Битрейт : 640 Кбит/сек
    Каналы : 6 каналов
    Channel layout : L R C LFE Ls Rs
    Частота : 48, 0 КГц
    Частота кадров : 31, 250 кадров/сек (1536 SPF)
    Битовая глубина : 16 бит
    Метод сжатия : С потерями
    Размер потока : 503 Мбайт (5%)
    Заголовок : Original
    Язык : German
    ServiceKind/String : Complete Main
    Default : Нет
    Forced : Нет
    Меню
    00: 00: 00.000 : en: Глава 01
    00: 08: 29.801 : en: Глава 02
    00: 17: 28.965 : en: Глава 03
    00: 27: 20.180 : en: Глава 04
    00: 37: 23.491 : en: Глава 05
    00: 45: 46.577 : en: Глава 06
    00: 54: 37.191 : en: Глава 07
    01: 02: 09.517 : en: Глава 08
    01: 14: 04.982 : en: Глава 09
    01: 24: 52.754 : en: Глава 10
    01: 33: 58.091 : en: Глава 11
    01: 40: 14.091 : en: Глава 12

    Скриншоты для ознакомления



    Все одноименные релизы в Клубе
    Время раздачи: 24/7 (до появления первых 3-5 скачавших)


    Онлайн видео Джим Пуговка и машинист Лукас



    Джим Пуговка и машинист Лукас/Jim Knopf und Lukas der Lokomotivfuhrer (2018) BDRip [H.264/1080p]
    Рейтинг →
     (голосов: 1, оценка 3/5, голосовать можно 1 раз )

    Другие торренты по теме:

  • Джим Баттон / Джим Кнопка / Джим Пуговка / Jim Knopf / Jim Button (2000 – 2001) TVRip (Сезон 1-2, серий 52)
  • Джим Пуговка и машинист Лукас / Jim Knopf und Lukas der Lokomotivfuhrer (2018) WEB-DLRip [Line, AD]
  • Джим Пуговка и машинист Лукас / Jim Knopf und Lukas der Lokomotivfuhrer (2018) WEB-DL [H.264 / 1080p-LQ]
  • Джим Пуговка и машинист Лукас / Jim Knopf und Lukas der Lokomotivfuhrer (2018) WEB-DL [H.264 / 720p-LQ]
  • Джим Пуговка и машинист Лукас / Jim Knopf und Lukas der Lokomotivfuhrer (2018) WEB-DLRip [576p] iPad
  • Джим Пуговка и машинист Лукас / Jim Knopf und Lukas der Lokomotivfuhrer (2018) WEB-DL [1080p] ATV
  • Джим Пуговка и машинист Лукас / Jim Knopf und Lukas der Lokomotivführer (2018) WEB-DL [720p] ATV
  • Джим Пуговка и машинист Лукас / Jim Knopf und Lukas der Lokomotivfuhrer (2018) UHD BDRemux [H.265 / 2160p] [4K, HDR, 10-bit]


    • Комментарии (0):

      Информация

      Информация

        Посетители, находящиеся в группе Гости, не могут оставлять комментарии в данной новости.

        ↓ Меню




        ↓ Опрос

        Вы добавили сайт в закладки?
        Да
        Нет


        Top 10 за месяц (Мультфильмы)

        Оранжевая корова (2018-2019) WEB-DLRip [H.264 / 720p-LQ] (сезон 1, серии 1-3 из 20)

        (скачиваний: 268)
        Три кота (2018) WEB-DLRip [H.264 / 720p-LQ] (сезон 3, серии 105-106 из 156)

        (скачиваний: 159)
        Рик и Морти / Rick and Morty (2015) WEB-DL [H.264 / 1080p] (Сезон 2, серии 1-10 из 10) Сыендук [EN / RU Sub] скачать через торрент бесплатно

        (скачиваний: 154)
        Лунтик и его друзья (2013-2017) WEB-DLRip 7,8,9 сезон (390-488 серии)[Обновляемая]

        (скачиваний: 93)
        Роботы-поезда / Robot Trains (2017) WEB-DL [H.264 / 720p-LQ] (1 сезон, 32 серий из 32)

        (скачиваний: 92)
        Футурама / Futurama (1999-2013) DVDRip (7 Сезонов, 140 серии) скачать через торрент бесплатно

        (скачиваний: 84)
        МиниФорс X / MiniForce X (2019) WEB-DLRip [H.264 / 720p-LQ] (сезон 2, серии 1-26 из 52) [Обновляемая]

        (скачиваний: 80)
        Расти-механик / Rusty Rivets (2016) WEB-DL [H.264] (Серии 1-23)

        (скачиваний: 66)
        Космический рубеж / Final Space (2018) WEB-DLRip [H.264 / 1080p] (Сезон 1, Серии 10 из 10) Кубик в Кубе

        (скачиваний: 65)
        Пластилинки. Циферки (2018-2019) WEB-DLRip [H.264 / 720p-LQ] (сезон 1, серии 1-6 из 10)

        (скачиваний: 62)