.
Авторизация | Регистрация
Хочешь лучшие торренты? Добавь свой email!
Добавить

Торрент скачать бесплатно

  • support: webmaster@btracker.club
» » My Little Pony: Наилучший подарок / My Little Pony: Best Gift Ever (2018) WEB-DL [H.264 / 720p-LQ] [UKR / ENG, ENG Sub] торрент скачать бесплатно


    My Little Pony: Наилучший подарок / My Little Pony: Best Gift Ever (2018) WEB-DL [H.264 / 720p-LQ] [UKR / ENG, ENG Sub] торрент скачать бесплатно

    Опубликовал: fregat | Дата: 26-12-2018, 05:00 | .torrent скачали: 0

    My Little Pony: Наилучший подарок / My Little Pony: Best Gift Ever (2018) WEB-DL [H.264 / 720p-LQ] [UKR / ENG, ENG Sub]Производство: США, Канада, Hasbro Studios
    Жанр: Детский
    Режиссер: Денни Лу, Майк Маер

    Описание

    Приближается Праздник Огня, пони собираются вместе и готовятся праздновать, но планы Твайлайт меняются через внезапный визит брата с семьей. Чтобы предотвратить беспорядка, Твайлайт и друзья объединяют свои усилия, чтобы найти друг другу лучший подарок.

    Релиз от: sergiyko
    Продолжительность: 00: 44: 10
    Качество видео: WEB-DL
    Перевод: Отсутствует
    Язык озвучки: украинский, английский
    Озвучка/Автор перевода: ТК ПлюсПлюс
    Субтитры: английские
    Видео: AVC/H.264, 1280 х 720, ~3990 Kbps
    Аудио 1: AC3, 2 ch, 192 kbps - украинский
    Аудио 2: AC3, 6 ch, 384 kbps - английский

    General
    Unique ID : 5507325123577700385584548581461240336 (0x424AC17B7A1AE58CAAB9C6E8BD8AA10)
    Complete name : G: Torrents2MULTMy Little Pony.The Best Gift Ever.2018.720p..
    Format :
    Format version : Version 4
    File size : 1.41 GiB
    Duration : 44 min 9 s
    Overall bit rate : 4 570 kb/s
    Movie name : My Little Pony.The Best Gift Ever 720p by sergiyko
    Encoded date : UTC 2018-12-25 14: 44: 10
    Writing application : v29.0.0 (\'Like It Or Not\') 64-bit
    Writing library : libebml v1.3.6 + v1.4.9
    Cover : Yes
    Attachments : cover.jpg
    Video
    ID : 1
    Format : AVC
    Format/Info : Advanced Video Codec
    Format profile : High@L3.1
    Format settings : 2 Ref Frames
    Format settings, CABAC : No
    Format settings, ReFrames : 2 frames
    Codec ID : V_MPEG4/ISO/AVC
    Duration : 44 min 9 s
    Bit rate : 3 991 kb/s
    Width : 1 280 pixels
    Height : 720 pixels
    Display aspect ratio : 16: 9
    Frame rate mode : Constant
    Frame rate : 23.976 (24000/1001) FPS
    Color space : YUV
    Chroma subsampling : 4: 2: 0
    Bit depth : 8 bits
    Scan type : Progressive
    Bits/(Pixel*Frame) : 0.181
    Stream size : 1.23 GiB (87%)
    Title : My Little Pony.The Best Gift Ever
    Language : English
    Default : Yes
    Forced : No
    Color range : Limited
    Color primaries : BT.709
    Transfer characteristics : BT.709
    Matrix coefficients : BT.709
    Audio #1
    ID : 2
    Format : AC-3
    Format/Info : Audio Coding 3
    Commercial name : Dolby Digital
    Codec ID : A_AC3
    Duration : 44 min 9 s
    Bit rate mode : Constant
    Bit rate : 192 kb/s
    Channel(s) : 2 channels
    Channel layout : L R
    Sampling rate : 48.0 kHz
    Frame rate : 31.250 FPS (1536 SPF)
    Bit depth : 16 bits
    Compression mode : Lossy
    Stream size : 60.6 MiB (4%)
    Title : DUB 2.0ch | ПлюсПлюс
    Language : Ukrainian
    Service kind : Complete Main
    Default : Yes
    Forced : Yes
    Audio #2
    ID : 3
    Format : AC-3
    Format/Info : Audio Coding 3
    Commercial name : Dolby Digital
    Codec ID : A_AC3
    Duration : 44 min 9 s
    Bit rate mode : Constant
    Bit rate : 384 kb/s
    Channel(s) : 6 channels
    Channel layout : L R C LFE Ls Rs
    Sampling rate : 48.0 kHz
    Frame rate : 31.250 FPS (1536 SPF)
    Bit depth : 16 bits
    Compression mode : Lossy
    Stream size : 121 MiB (8%)
    Title : Original
    Language : English
    Service kind : Complete Main
    Default : No
    Forced : No
    Text
    ID : 4
    Format : UTF-8
    Codec ID : S_TEXT/UTF8
    Codec ID/Info : UTF-8 Plain Text
    Duration : 43 min 34 s
    Bit rate : 90 b/s
    Count of elements : 868
    Stream size : 28.8 KiB (0%)
    Title : CC
    Language : English
    Default : No
    Forced : No

    Скриншоты для ознакомления



    Все одноименные релизы в Клубе
    Время раздачи: Пн-Пт с 18: 00 до 24: 00 (до появления первых 3-5 скачавших)


    Онлайн видео My Little Pony: Наилучший подарок



    My Little Pony: Наилучший подарок/My Little Pony: Best Gift Ever (2018) WEB-DL [H.264/720p-LQ] [UKR/ENG, ENG Sub]
    Рейтинг →
     (голосов: 1, оценка 4/5, голосовать можно 1 раз )

    Другие торренты по теме:

  • My Little Pony в кино / My Little Pony: The Movie (2017) WEB-DL [H.265 / 1080p-LQ] [EN]
  • My Little Pony в кино (Мой маленький пони) / My Little Pony: The Movie (2017) WEB-DLRip [Line] [AD]
  • My Little Pony в кино (Мой маленький пони) / My Little Pony: The Movie (2017) WEB-DLRip [H.264 / 1080p-LQ] [Line] [AD]
  • My Little Pony в кино (Мой маленький пони) / My Little Pony: The Movie (2017) WEB-DL [H.264 / 1080p-LQ]
  • My Little Pony в кино (Мой маленький пони) / My Little Pony: The Movie (2017) WEB-DLRip
  • My Little Pony в кино (Мой маленький пони) / My Little Pony: The Movie (2017) BDRip [H.264 / 1080p] [PR]
  • Мой маленький пони: Девочки из Эквестрии Радужный рок / My Little Pony: Equestria Girls Rainbow Rocks (2014) WEB-DLRip скачать через торрент бесплатно
  • Мой маленький пони. Дружба - это чудо / My Little Pony: Friendship Is Magic (2011) WEB-DL [H.264] (сезон 2 серии 01-26 из 26) скачать через торрент бесплатно


    • Комментарии (0):

      Информация

      Информация

        Посетители, находящиеся в группе Гости, не могут оставлять комментарии в данной новости.

        ↓ Меню




        ↓ Опрос

        Вы добавили сайт в закладки?
        Да
        Нет


        Top 10 за месяц (Мультфильмы)