.
Авторизация | Регистрация

Торрент скачать бесплатно

  • support: webmaster@btracker.club
» » Белый клык 2: Легенда о белом волке / White Fang 2: Myth of the White Wolf (1994) WEB-DLRip [H.264 / 1080p] торрент скачать бесплатно


    Белый клык 2: Легенда о белом волке / White Fang 2: Myth of the White Wolf (1994) WEB-DLRip [H.264 / 1080p] торрент скачать бесплатно

    Дата: 26-12-2018, 05:00 | .torrent скачали: 0

    Белый клык 2: Легенда о белом волке / White Fang 2: Myth of the White Wolf (1994) WEB-DLRip [H.264 / 1080p]Производство: США/Walt Disney Pictures
    Жанр: Приключения, семейный, экранизация
    Режиссер: Кен Олин

    Актеры
    Скотт Бэйрстоу, Чармэйн Крэйг, Эл Харигтон, Энтони Руививар, Альфред Молина, Пол Койер, Джеффри Льюис, Мэттью Коулз, Вудроу В. Моррисон, Рейнолд Русс, Натан Янг, Эдвард Дэвис

    Описание

    На Диком Западе издавна существовала легенда о белом волке. Никто не мог разгадать этот миф. Но когда древнее индейское племя попало в беду, и золотоискатель Генри со своим псом по кличке Белый Клык встал на его защиту, таинственное предание воплощается в реальность…

    Возраст: 12+ (зрителям, достигшим 12 лет)
    Рейтинг MPAA: PG-13 (детям до 13 лет просмотр нежелателен)
    Продолжительность: 01: 46: 08
    Качество видео: WEB-DLRip
    Перевод: Многоголосый, закадровый профессиональный, авторский
    Субтитры: Английские (Full, SDH), немецкие (Full)
    Видео: AVC/H.264, 1920x1080 (16: 9), ~11.2 Mbps
    Аудио #1: AC3, 6 ch, 448 Kbps - MVO (ОРТ, DVD5 )
    Аудио #2: AC3, 2 ch, 192 Kbps - AVO (В. Горчаков)
    Аудио #3: AC3, 2 ch, 192 Kbps - AVO (А. Михалев)
    Аудио #4: E-AC3 , 6 ch, 640 Kbps - Английский

    Общее
    Уникальный идентификатор : 241227006921813005084501658167523901289 (0xB57AA1B0B49EBA7BAAE2CC74C4DF7F69)
    Полное имя : G: Белый клык 2.Легенда о белом.волке (1994).mkv
    Формат : Matroska
    Версия формата : Version 4
    Размер файла : 9, 59 Гбайт
    Продолжительность : 1 ч. 46 м.
    Режим общего битрейта : Переменный
    Общий поток : 12, 9 Мбит/сек
    Дата кодирования : UTC 2018-12-25 16: 45: 01
    Программа кодирования : mkvmerge v29.0.0 (\'Like It Or Not\') 32-bit
    Библиотека кодирования : libebml v1.3.6 + libmatroska v1.4.9
    Видео
    Идентификатор : 1
    Формат : AVC
    Формат/Информация : Advanced Video Codec
    Профиль формата : High@L4
    Настройки формата : CABAC/4 Ref Frames
    Параметр CABAC формата : Да
    Параметр RefFrames формата : 4 кадра
    Идентификатор кодека : V_MPEG4/ISO/AVC
    Продолжительность : 1 ч. 46 м.
    Вид битрейта : Переменный
    Битрейт : 11, 5 Мбит/сек
    Максимальный битрейт : 15, 0 Мбит/сек
    Ширина : 1920 пикселей
    Высота : 1080 пикселей
    Соотношение сторон : 16: 9
    Режим частоты кадров : Постоянный
    Частота кадров : 23, 976 (24000/1001) кадра/сек
    Цветовое пространство : YUV
    Субдискретизация насыщенности : 4: 2: 0
    Битовая глубина : 8 бит
    Тип развёртки : Прогрессивная
    Бит/(Пиксели*Кадры) : 0.230
    Размер потока : 8, 49 Гбайт (89%)
    Библиотека кодирования : x264 core 148 r2623 d5b2374
    Настройки программы : cabac=1/ref=4/deblock=1: -1: -1/analyse=0x3: 0x133/me=umh/subme=9/psy=1/psy_rd=1.00: 0.15/mixed_ref=1/me_range=24/chroma_me=1/trellis=2/8x8dct=1/cqm=0/deadzone=21, 11/fast_pskip=1/chroma_qp_offset=-3/threads=34/lookahead_threads=5/sliced_threads=0/nr=150/decimate=1/interlaced=0/bluray_compat=0/constrained_intra=0/bframes=8/b_pyramid=2/b_adapt=2/b_bias=0/direct=3/weightb=1/open_gop=0/weightp=2/keyint=120/keyint_min=61/scenecut=0/intra_refresh=0/rc_lookahead=120/rc=crf/mbtree=1/crf=18.0/qcomp=0.60/qpmin=0/qpmax=69/qpstep=4/vbv_maxrate=15000/vbv_bufsize=31250/crf_max=0.0/nal_hrd=vbr/filler=0/ip_ratio=1.40/aq=3: 1.00
    Язык : English
    Default : Да
    Forced : Нет
    Цветовой диапазон : Limited
    Основные цвета : BT.709
    Характеристики трансфера : BT.709
    Коэффициенты матрицы : BT.709
    Аудио #1
    Идентификатор : 2
    Формат : AC-3
    Формат/Информация : Audio Coding 3
    Коммерческое название : Dolby Digital
    Идентификатор кодека : A_AC3
    Продолжительность : 1 ч. 46 м.
    Вид битрейта : Постоянный
    Битрейт : 448 Кбит/сек
    Каналы : 6 каналов
    Channel layout : L R C LFE Ls Rs
    Частота : 48, 0 КГц
    Частота кадров : 31, 250 кадров/сек (1536 SPF)
    Битовая глубина : 16 бит
    Метод сжатия : С потерями
    Размер потока : 340 Мбайт (3%)
    Заголовок : MVO | ОРТ, 5.1
    Язык : Russian
    ServiceKind/String : Complete Main
    Default : Да
    Forced : Нет
    Аудио #2
    Идентификатор : 3
    Формат : AC-3
    Формат/Информация : Audio Coding 3
    Коммерческое название : Dolby Digital
    Идентификатор кодека : A_AC3
    Продолжительность : 1 ч. 46 м.
    Вид битрейта : Постоянный
    Битрейт : 192 Кбит/сек
    Каналы : 2 канала
    Channel layout : L R
    Частота : 48, 0 КГц
    Частота кадров : 31, 250 кадров/сек (1536 SPF)
    Битовая глубина : 16 бит
    Метод сжатия : С потерями
    Размер потока : 146 Мбайт (1%)
    Заголовок : AVO | В. Горчаков
    Язык : Russian
    ServiceKind/String : Complete Main
    Default : Нет
    Forced : Нет
    Аудио #3
    Идентификатор : 4
    Формат : AC-3
    Формат/Информация : Audio Coding 3
    Коммерческое название : Dolby Digital
    Идентификатор кодека : A_AC3
    Продолжительность : 1 ч. 46 м.
    Вид битрейта : Постоянный
    Битрейт : 192 Кбит/сек
    Каналы : 2 канала
    Channel layout : L R
    Частота : 48, 0 КГц
    Частота кадров : 31, 250 кадров/сек (1536 SPF)
    Битовая глубина : 16 бит
    Метод сжатия : С потерями
    Размер потока : 146 Мбайт (1%)
    Заголовок : AVO | А. Михалев
    Язык : Russian
    ServiceKind/String : Complete Main
    Default : Нет
    Forced : Нет
    Аудио #4
    Идентификатор : 5
    Формат : E-AC-3
    Формат/Информация : Enhanced AC-3
    Коммерческое название : Dolby Digital Plus
    Идентификатор кодека : A_EAC3
    Продолжительность : 1 ч. 46 м.
    Вид битрейта : Постоянный
    Битрейт : 640 Кбит/сек
    Каналы : 6 каналов
    Channel layout : L R C LFE Ls Rs
    Частота : 48, 0 КГц
    Частота кадров : 31, 250 кадров/сек (1536 SPF)
    Метод сжатия : С потерями
    Размер потока : 486 Мбайт (5%)
    Заголовок : Original
    Язык : English
    ServiceKind/String : Complete Main
    Default : Нет
    Forced : Нет
    Текст #1
    Идентификатор : 6
    Формат : UTF-8
    Идентификатор кодека : S_TEXT/UTF8
    Идентификатор кодека/Информация : UTF-8 Plain Text
    Продолжительность : 1 ч. 41 м.
    Битрейт : 25 бит/сек
    ElementCount : 783
    Размер потока : 18, 6 Кбайт (0%)
    Язык : English
    Default : Нет
    Forced : Нет
    Текст #2
    Идентификатор : 7
    Формат : UTF-8
    Идентификатор кодека : S_TEXT/UTF8
    Идентификатор кодека/Информация : UTF-8 Plain Text
    Продолжительность : 1 ч. 41 м.
    Битрейт : 30 бит/сек
    ElementCount : 977
    Размер потока : 22, 7 Кбайт (0%)
    Заголовок : SDH
    Язык : English
    Default : Нет
    Forced : Нет
    Текст #3
    Идентификатор : 8
    Формат : UTF-8
    Идентификатор кодека : S_TEXT/UTF8
    Идентификатор кодека/Информация : UTF-8 Plain Text
    Продолжительность : 1 ч. 45 м.
    Битрейт : 23 бит/сек
    ElementCount : 536
    Размер потока : 17, 9 Кбайт (0%)
    Язык : German
    Default : Нет
    Forced : Нет
    Меню
    00: 00: 00.000 : en: Chapter 01
    00: 11: 22.328 : en: Chapter 02
    00: 21: 22.328 : en: Chapter 03
    00: 30: 06.328 : en: Chapter 04
    00: 41: 40.328 : en: Chapter 05
    00: 56: 41.328 : en: Chapter 06
    01: 08: 01.328 : en: Chapter 07
    01: 19: 34.328 : en: Chapter 08
    01: 34: 30.328 : en: Chapter 09
    01: 43: 00.328 : en: Chapter 10

    Скриншоты для ознакомления



    Все одноименные релизы в Клубе
    Время раздачи: 24/7 (круглосуточно) (до появления первых 3-5 скачавших)


    Онлайн видео Белый клык 2: Легенда о белом волке



    Белый клык 2: Легенда о белом волке/White Fang 2: Myth of the White Wolf (1994) WEB-DLRip [H.264/1080p]
    Рейтинг →
     (голосов: 1, оценка 5/5, голосовать можно 1 раз )

    Другие торренты по теме:

  • Белый клык / Zanna Bianca (1973) DVDRip скачать через торрент бесплатно
  • Белый клык / White Fang (1991) DVD5
  • Белый клык / White Fang (1991) DVDRip [H.264]
  • Белый клык / White Fang (1991) WEB-DL [H.264 / 720p]
  • Белый клык 2: Легенда о белом волке / White Fang 2: Myth of the White Wolf (1994) WEB-DL [H.264 / 720p]
  • Белый клык / Croc-Blanc (2018) WEB-DLRip [EN / RU, EN Sub]
  • Белый клык / Croc-Blanc (2018) WEB-DL [H.264 / 1080p-LQ] [EN / RU, EN Sub]
  • Белый клык / Croc-Blanc (2018) WEBRip [H.264 / 720p-LQ] [MVO] [AD]


    • Комментарии (0):

      Информация

      Информация

        Посетители, находящиеся в группе Гости, не могут оставлять комментарии в данной новости.

        ↓ Меню




        ↓ Опрос

        Вы добавили сайт в закладки?
        Да
        Нет


        Top 10 за месяц (Мультфильмы)

        Оранжевая корова (2018-2019) WEB-DLRip [H.264 / 720p-LQ] (сезон 1, серии 1-3 из 20)

        (скачиваний: 275)
        Три кота (2018) WEB-DLRip [H.264 / 720p-LQ] (сезон 3, серии 105-106 из 156)

        (скачиваний: 161)
        Рик и Морти / Rick and Morty (2015) WEB-DL [H.264 / 1080p] (Сезон 2, серии 1-10 из 10) Сыендук [EN / RU Sub] скачать через торрент бесплатно

        (скачиваний: 154)
        Лунтик и его друзья (2013-2017) WEB-DLRip 7,8,9 сезон (390-488 серии)[Обновляемая]

        (скачиваний: 96)
        Роботы-поезда / Robot Trains (2017) WEB-DL [H.264 / 720p-LQ] (1 сезон, 32 серий из 32)

        (скачиваний: 94)
        Футурама / Futurama (1999-2013) DVDRip (7 Сезонов, 140 серии) скачать через торрент бесплатно

        (скачиваний: 87)
        МиниФорс X / MiniForce X (2019) WEB-DLRip [H.264 / 720p-LQ] (сезон 2, серии 1-26 из 52) [Обновляемая]

        (скачиваний: 82)
        Космический рубеж / Final Space (2018) WEB-DLRip [H.264 / 1080p] (Сезон 1, Серии 10 из 10) Кубик в Кубе

        (скачиваний: 70)
        Расти-механик / Rusty Rivets (2016) WEB-DL [H.264] (Серии 1-23)

        (скачиваний: 67)
        Пластилинки. Циферки (2018-2019) WEB-DLRip [H.264 / 720p-LQ] (сезон 1, серии 1-6 из 10)

        (скачиваний: 62)