.
Авторизация | Регистрация
Хочешь лучшие торренты? Добавь свой email!
Добавить

Торрент скачать бесплатно

  • support: webmaster@btracker.club
» » Распрекрасный принц / Charming (2018) WEB-DLRip торрент скачать бесплатно


    Распрекрасный принц / Charming (2018) WEB-DLRip торрент скачать бесплатно

    Опубликовал: Allex | Дата: 25-12-2018, 13:49 | .torrent скачали: 6

    Распрекрасный принц / Charming (2018) WEB-DLRipПроизводство: США, Канада/3QU Media, Cinesite, Storyoscopic Films, Vanguard Animation, WV Enterprises
    Жанр: Мультфильм, Комедия, Семейный, Фэнтези, Мюзикл
    Режиссер: Росс Венокур
    Персонажи: Деми Ловато, Уилмер Вальдеррама, Сиа, Ниа Вардалос, Эшли Тисдейл, Аврил Лавин, Глория Тэнг, Джон Клиз, Ди Брэдли Бейкер, Карлос Аласраки ...

    Описание

    О прекрасном принце мечтает каждая, что уж говорить о Распрекрасном. Необычный дар юноша получил еще при рождении: девушки готовы на всё ради его улыбки, но плата за это — праведный гнев мужчин. Такое положение дел не может продолжаться вечно, а дар вот-вот обернется проклятьем. И теперь у Распрекрасного принца всего три дня, чтобы спасти Королевство от самого себя…

    Возраст: 6+ (зрителям, достигшим 6 лет)
    Дата мировой премьеры: 20 апреля 2018, ...
    Дата российской премьеры: 28 июня 2018, Вольга
    Цифровой релиз: 21 августа 2018, Вольга
    Релиз от: NNMClub
    Продолжительность: 01: 25: 10
    Качество видео: WEB-DLRip
    Перевод: Дублированный (iTunes)
    Субтитры: Отсутствуют
    Видео: MPEG4, XviD, 720x384 (1.875), 24.000 fps, 1 689 Kbps (0.254 bit/pixel)
    Аудио #1: AC-3, 48.0 KHz, 6 ch, 384 Kbps, CBR - Русский
    Аудио #2: AC-3, 48.0 KHz, 6 ch, 384 Kbps, CBR - Украинский
    General
    Complete name : Charming.2018.D.WEB-DLRip.RU.UKR.NNMClub.avi
    Format : AVI
    Format/Info : Audio Video Interleave
    File size : 1.47 GiB
    Duration : 1 h 25 min
    Overall bit rate : 2 467 kb/s
    Video
    ID : 0
    Format : MPEG-4 Visual
    Format profile : Advanced Simple@L5
    Format settings : BVOP2
    Format settings, BVOP : 2
    Format settings, QPel : No
    Format settings, GMC : No warppoints
    Format settings, Matrix : Default (MPEG)
    Codec ID : XVID
    Codec ID/Hint : XviD
    Duration : 1 h 25 min
    Bit rate : 1 689 kb/s
    Width : 720 pixels
    Height : 384 pixels
    Display aspect ratio : 1.85: 1
    Frame rate : 24.000 FPS
    Color space : YUV
    Chroma subsampling : 4: 2: 0
    Bit depth : 8 bits
    Scan type : Progressive
    Compression mode : Lossy
    Bits/(Pixel*Frame) : 0.254
    Stream size : 1.00 GiB (68%)
    Writing library : XviD 67
    Audio #1
    ID : 1
    Format : AC-3
    Format/Info : Audio Coding 3
    Commercial name : Dolby Digital
    Codec ID : 2000
    Duration : 1 h 25 min
    Bit rate mode : Constant
    Bit rate : 384 kb/s
    Channel(s) : 6 channels
    Channel positions : Front: L C R, Side: L R, LFE
    Sampling rate : 48.0 kHz
    Frame rate : 31.250 FPS (1536 SPF)
    Bit depth : 16 bits
    Compression mode : Lossy
    Stream size : 234 MiB (16%)
    Alignment : Aligned on interleaves
    Interleave, duration : 64 ms (1.54 video frames)
    Interleave, preload duratio : 192 ms
    Title : T2_Audio - Russian
    Service kind : Complete Main
    Audio #2
    ID : 2
    Format : AC-3
    Format/Info : Audio Coding 3
    Commercial name : Dolby Digital
    Codec ID : 2000
    Duration : 1 h 25 min
    Bit rate mode : Constant
    Bit rate : 384 kb/s
    Channel(s) : 6 channels
    Channel positions : Front: L C R, Side: L R, LFE
    Sampling rate : 48.0 kHz
    Frame rate : 31.250 FPS (1536 SPF)
    Bit depth : 16 bits
    Compression mode : Lossy
    Stream size : 234 MiB (16%)
    Alignment : Aligned on interleaves
    Interleave, duration : 64 ms (1.54 video frames)
    Interleave, preload duratio : 192 ms
    Title : T3_Audio - Ukrainian
    Service kind : Complete Main


    Онлайн видео Распрекрасный принц



    Распрекрасный принц/Charming (2018) WEB-DLRip
    Рейтинг →
     (голосов: 1, оценка 3/5, голосовать можно 1 раз )

    Другие торренты по теме:

  • Распрекрасный принц / Charming (2018) BDRip [H.264 / 1080p]


    • Комментарии (0):

      Информация

      Информация

        Посетители, находящиеся в группе Гости, не могут оставлять комментарии в данной новости.

        ↓ Меню




        ↓ Опрос

        Вы добавили сайт в закладки?
        Да
        Нет


        Top 10 за месяц (Мультфильмы)