.
Авторизация | Регистрация
Хочешь лучшие торренты? Добавь свой email!
Добавить

Торрент скачать бесплатно

  • support: webmaster@btracker.club
» » Тачки / Cars (2006) BDRip [H.265 / 1080p-LQ] [10-bit] торрент скачать бесплатно


    Тачки / Cars (2006) BDRip [H.265 / 1080p-LQ] [10-bit] торрент скачать бесплатно

    Опубликовал: fregat | Дата: 25-12-2018, 05:00 | .torrent скачали: 0

    Тачки / Cars (2006) BDRip [H.265 / 1080p-LQ] [10-bit]Производство: США/Pixar Animation Studios, Walt Disney Pictures
    Жанр: Мультфильм, комедия, семейный, спорт
    Режиссер: Джон Лассетер, Джо Рэнфт

    Описание

    Неукротимый в своем желании всегда и во всем побеждать гоночный автомобиль Молния Маккуин вдруг обнаруживает, что сбился с пути и застрял в маленьком захолустном городке Радиатор-Спрингс, что находится где-то на трассе 66 в Калифорнии.

    Возраст: 6+ (зрителям, достигшим 6 лет)
    Рейтинг MPAA: G (нет возрастных ограничений)
    Релиз от: Mr. Fox (KINO-MIX)
    Продолжительность: 01: 56: 36
    Качество видео: BDRip
    Перевод: Дублированный (Лицензия)
    Субтитры: Русские (форсированные, полные), английские
    Видео: HEVC/H.265, 1920x800, ~7228 Kbps
    Аудио 1: AC3, 6 ch, 640 Kbps - Дублированный
    Аудио 2: AC3, 6 ch, 640 Kbps - Английский

    Общее
    Уникальный идентификатор : 292333611924175672898973253686558382008 (0xDBED67DBAA1EB55942F05D4B076ED7B8)
    Полное имя : F: РАЗДАЧИТачки. 2006. 1080p. HEVC. 10 bit.mkv
    Формат : Matroska
    Версия формата : Version 4/Version 2
    Размер файла : 6, 93 Гбайт
    Продолжительность : 1 ч. 56 м.
    Общий поток : 8513 Кбит/сек
    Название фильма : Рип от Mr. Fox, специально для сайта Kino-mix
    Дата кодирования : UTC 2018-12-24 07: 58: 33
    Программа кодирования : mkvmerge v28.2.0 (\'The Awakening\') 64-bit
    Библиотека кодирования : libebml v1.3.6 + libmatroska v1.4.9
    Обложка : Yes
    Attachments : cover.jpg
    Видео
    Идентификатор : 1
    Формат : HEVC
    Формат/Информация : High Efficiency Video Coding
    Профиль формата : Main10@L4.1@High
    Идентификатор кодека : V_MPEGH/ISO/HEVC
    Продолжительность : 1 ч. 56 м.
    Битрейт : 7228 Кбит/сек
    Ширина : 1920 пикселей
    Высота : 800 пикселей
    Соотношение сторон : 2, 40: 1
    Режим частоты кадров : Постоянный
    Частота кадров : 23, 976 (24000/1001) кадра/сек
    Цветовое пространство : YUV
    Субдискретизация насыщенности : 4: 2: 0
    Битовая глубина : 10 бит
    Бит/(Пиксели*Кадры) : 0.196
    Размер потока : 5, 89 Гбайт (85%)
    Заголовок : Рип от Mr. Fox, специально для сайта Kino-mix
    Библиотека кодирования : x265 2.9+9-f74003e88622: WindowsGCC 7.3.064 bit 10bit
    Настройки программы : cpuid=1111039/frame-threads=13/numa-pools=12/wpp/no-pmode/no-pme/no-psnr/no-ssim/log-level=3/input-csp=1/input-res=1920x800/interlace=0/total-frames=0/level-idc=41/high-tier=1/uhd-bd=0/ref=5/allow-non-conformance/no-repeat-t_heads/annexb/no-aud/no-hrd/info/hash=0/no-temporal-layers/open-gop/min-keyint=24/keyint=240/gop-lookahead=0/bframes=9/b-adapt=2/b-pyramid/bframe-bias=0/rc-lookahead=60/lookahead-slices=4/scenecut=40/radl=0/no-intra-refresh/ctu=32/min-cu-size=8/rect/amp/max-tu-size=32/tu-inter-depth=4/tu-intra-depth=4/limit-tu=1/rdoq-level=2/dynamic-rd=0.00/no-ssim-rd/signhide/no-tskip/nr-intra=0/nr-inter=0/no-constrained-intra/no-strong-intra-smoothing/max-merge=4/limit-refs=2/limit-modes/me=3/subme=7/merange=57/temporal-mvp/weightp/weightb/no-analyze-src-pics/deblock=-3: -3/no-sao/no-sao-non-deblock/rd=6/no-early-skip/no-rskip/no-fast-intra/no-tskip-fast/no-cu-lossless/no-b-intra/no-splitrd-skip/rdpenalty=0/psy-rd=2.00/psy-rdoq=1.00/no-rd-refine/no-lossless/cbqpoffs=0/crqpoffs=0/rc=crf/crf=18.0/qcomp=0.60/qpstep=1/stats-write=0/stats-read=0/vbv-maxrate=50000/vbv-bufsize=50000/vbv-init=0.9/crf-max=30.0/crf-min=0.0/ipratio=1.40/pbratio=1.30/aq-mode=1/aq-strength=0.90/no-cutree/zone-count=0/no-strict-cbr/qg-size=32/no-rc-grain/qpmax=69/qpmin=0/no-const-vbv/sar=1/overscan=0/videoformat=5/range=0/colorprim=2/transfer=2/colormatrix=2/chromaloc=0/display-window=0/max-cll=0, 0/min-luma=0/max-luma=1023/log2-max-poc-lsb=8/vui-timing-info/vui-hrd-info/slices=1/no-opt-qp-pps/no-opt-ref-list-length-pps/no-multi-pass-opt-rps/scenecut-bias=0.05/no-opt-cu-delta-qp/no-aq-motion/no-hdr/no-hdr-opt/no-dhdr10-opt/no-idr-recovery-sei/analysis-reuse-level=5/scale-factor=0/refine-intra=0/refine-inter=0/refine-mv=0/no-limit-sao/ctu-info=0/no-lowpass-dct/refine-mv-type=0/copy-pic=1/max-ausize-factor=1.0/no-dynamic-refine/no-single-sei
    Default : Да
    Forced : Нет
    Аудио #1
    Идентификатор : 2
    Формат : AC-3
    Формат/Информация : Audio Coding 3
    Идентификатор кодека : A_AC3
    Продолжительность : 1 ч. 56 м.
    Вид битрейта : Постоянный
    Битрейт : 640 Кбит/сек
    Каналы : 6 каналов
    Расположение каналов : Front: L C R, Side: L R, LFE
    Частота : 48, 0 КГц
    Частота кадров : 31, 250 кадров/сек (1536 SPF)
    Битовая глубина : 16 бит
    Метод сжатия : С потерями
    Размер потока : 534 Мбайт (8%)
    Язык : Russian
    ServiceKind/String : Complete Main
    Default : Да
    Forced : Нет
    Аудио #2
    Идентификатор : 3
    Формат : AC-3
    Формат/Информация : Audio Coding 3
    Идентификатор кодека : A_AC3
    Продолжительность : 1 ч. 56 м.
    Вид битрейта : Постоянный
    Битрейт : 640 Кбит/сек
    Каналы : 6 каналов
    Расположение каналов : Front: L C R, Side: L R, LFE
    Частота : 48, 0 КГц
    Частота кадров : 31, 250 кадров/сек (1536 SPF)
    Битовая глубина : 16 бит
    Метод сжатия : С потерями
    Размер потока : 534 Мбайт (8%)
    Язык : English
    ServiceKind/String : Complete Main
    Default : Нет
    Forced : Нет
    Текст #1
    Идентификатор : 4
    Формат : UTF-8
    Идентификатор кодека : S_TEXT/UTF8
    Идентификатор кодека/Информация : UTF-8 Plain Text
    Продолжительность : 1 ч. 51 м.
    Битрейт : 1 бит/сек
    ElementCount : 35
    Размер потока : 1, 58 Кбайт (0%)
    Заголовок : forced
    Язык : Russian
    Default : Да
    Forced : Нет
    Текст #2
    Идентификатор : 5
    Формат : UTF-8
    Идентификатор кодека : S_TEXT/UTF8
    Идентификатор кодека/Информация : UTF-8 Plain Text
    Продолжительность : 1 ч. 55 м.
    Битрейт : 111 бит/сек
    ElementCount : 1479
    Размер потока : 94, 3 Кбайт (0%)
    Язык : Russian
    Default : Нет
    Forced : Нет
    Текст #3
    Идентификатор : 6
    Формат : UTF-8
    Идентификатор кодека : S_TEXT/UTF8
    Идентификатор кодека/Информация : UTF-8 Plain Text
    Продолжительность : 1 ч. 55 м.
    Битрейт : 78 бит/сек
    ElementCount : 1440
    Размер потока : 66, 0 Кбайт (0%)
    Язык : English
    Default : Нет
    Forced : Нет
    Меню
    00: 00: 00.000 : en: Dinoco 400
    00: 09: 27.692 : en: Victory Lane
    00: 13: 38.108 : en: Rust-Eze
    00: 16: 09.134 : en: Life Is a Highway
    00: 19: 42.764 : en: Lost
    00: 24: 23.170 : en: Into Town
    00: 27: 16.843 : en: Where\'s Mcqueen?
    00: 28: 02.055 : en: The Impound
    00: 29: 31.436 : en: Traffic Court
    00: 33: 47.567 : en: Bessie
    00: 35: 43.558 : en: Customers!
    00: 41: 40.456 : en: Doc\'s Challenge
    00: 45: 45.868 : en: A New Road
    00: 48: 30.324 : en: Turn Right to Go Left
    00: 50: 28.775 : en: Back to Work
    00: 54: 30.475 : en: Tractor Tipping
    00: 57: 37.495 : en: Backwards Driving
    01: 01: 19.050 : en: Goodnight
    01: 02: 48.389 : en: Doc\'s Piston Cups
    01: 05: 32.553 : en: Breakfast at Flo\'s
    01: 07: 32.882 : en: Drive with Sally
    01: 09: 39.091 : en: Wheel Well
    01: 11: 17.022 : en: Our Town
    01: 14: 51.236 : en: Stampede
    01: 15: 47.584 : en: Doc Races
    01: 20: 03.924 : en: He\'s Gone
    01: 22: 11.468 : en: A New Customer
    01: 24: 48.583 : en: Cruisin\'
    01: 27: 21.527 : en: Mcqueen Is Found
    01: 32: 26.791 : en: California Race
    01: 46: 07.402 : en: Back on the Map
    01: 48: 21.620 : en: Epilogue
    Доп. информация : -
    H.265/HEVC (High Efficiency Video Coding) - это новый стандарт кодирования видео.
    - Стандарт H.265/HEVC является логическим продолжением стандарта
    H.264/AVC (Advanced Video Coding), и характеризуется более эффективными
    алгоритмами сжатия, а также поддержкой высокого разрешения вплоть до 8K UHD
    (8192x4320). Первая версия стандарта H.265 была опубликована в начале 2013 года.
    - Рипы в фомате HEVC поддерживается не всеми аппаратными проигрывателями.
    - Для корректного воспроизведения может потребоваться обновление ПО.
    - Владельцам несовместимого железа просьба не беспокоить,
    есть альтернативные релизы.

    Скриншоты для ознакомления



    Все одноименные релизы в Клубе
    Время раздачи: с 8: 00 до 22: 00 (до появления первых 3-5 скачавших)


    Онлайн видео Тачки



    Тачки/Cars (2006) BDRip [H.265/1080p-LQ] [10-bit]
    Рейтинг →
     (голосов: 1, оценка 3/5, голосовать можно 1 раз )

    Другие торренты по теме:

  • Тачки / Cars (2006) BDRip [720p]
  • Тачки / Cars (2006) BDRip [1080p] ATV2 скачать через торрент бесплатно
  • Тачки / Cars (2006) WEB-DL [H.264 / 1080p-LQ] [open matte]
  • Тачки / Cars (2006) BDRip [H.265 / 1080p-LQ]
  • Cars 2 / Тачки 2 [PS3] [EUR] [Ru] [3.55] [Cobra ODE / E3 ODE PRO ISO] (2011)
  • Тачки 2 / Cars 2 (2011) BDRip [1080p] ATV
  • Тачки 2 / Cars 2 (2011) BDRip [720p] ATV
  • Cars 2 / Тачки 2 (2011) [Wii] [PAL] [Ru] скачать через торрент бесплатно


    • Комментарии (0):

      Информация

      Информация

        Посетители, находящиеся в группе Гости, не могут оставлять комментарии в данной новости.

        ↓ Меню




        ↓ Опрос

        Вы добавили сайт в закладки?
        Да
        Нет


        Top 10 за месяц (Мультфильмы)