.
Авторизация | Регистрация
Хочешь лучшие торренты? Добавь свой email!
Добавить

Торрент скачать бесплатно

  • support: webmaster@btracker.club
» » Рождественские хроники / The Christmas Chronicles (2018) WEB-DLRip торрент скачать бесплатно


    Рождественские хроники / The Christmas Chronicles (2018) WEB-DLRip торрент скачать бесплатно

    Опубликовал: fregat | Дата: 25-12-2018, 05:00 | .torrent скачали: 4

    Рождественские хроники / The Christmas Chronicles (2018) WEB-DLRipПроизводство: США, 1492 Pictures, Madhouse Entertainment, Netflix
    Жанр: Фэнтези, Комедия, Приключения, Семейный
    Режиссер: Клэй Кэйтис
    Продюсер: Майкл Барнатан

    Актеры
    Курт Расселл, Кимберли Уильямс, Оливер Хадсон, Джуда Льюис, Дэрби Кэмп, Ламорн Моррис, Мартин Роуч, Велла Ловелл, Лорен Коллинз, Голди Хоун

    Описание

    Брат и сестра Тедди и Кейт Прис хотят доказать существование Санты-Клауса, выследив его и засняв на видеокамеру. Вместо добродушного дедушки дети встречают острого на язык и харизматичного хозяина Рождества. Вместе с Сантой они отправляются в волшебное путешествие и пытаются спасти любимый праздник.

    Дата мировой премьеры: 22 ноября 2018
    Дата российской премьеры: 22 ноября 2018
    Продолжительность: 01: 44: 26
    Качество видео: WEB-DLRip
    Перевод: Дублированный (Пифагор)
    Субтитры: Русские (форс.)
    Видео: Xvid, 704x384, ~1611 Kbps
    Аудио: AC3, 6 ch, 384 Kbps, Русский

    Общее
    Полное имя : E: фильмы и сериалыThe.Christmas.Chronicles.2018.MegaPeerThe.Christmas.Chronicles.2018.MegaPeer.avi
    Формат : AVI
    Формат/Информация : Audio Video Interleave
    Размер файла : 1, 46 Гбайт
    Продолжительность : 1 ч. 44 м.
    Общий поток : 2005 Кбит/сек
    Программа кодирования : VirtualDubMod 1.5.10.3 |www.virtualdub-fr.org|| (build 2550/release)
    Библиотека кодирования : VirtualDubMod build 2550/release
    Видео
    Идентификатор : 0
    Формат : MPEG-4 Visual
    Профиль формата : Advanced Simple@L5
    Настройки формата : BVOP1/Custom Matrix
    Параметр BVOP формата : 1
    Параметр QPel формата : Нет
    Параметр GMC формата : Без точки перехода
    Параметр матрицы формата : Выборочная
    Идентификатор кодека : XVID
    Идентификатор кодека/Подсказка : XviD
    Продолжительность : 1 ч. 44 м.
    Битрейт : 1611 Кбит/сек
    Ширина : 704 пикселя
    Высота : 384 пикселя
    Соотношение сторон : 1, 85: 1
    Частота кадров : 24, 000 кадра/сек
    Цветовое пространство : YUV
    Субдискретизация насыщенности : 4: 2: 0
    Битовая глубина : 8 бит
    Тип развёртки : Прогрессивная
    Метод сжатия : С потерями
    Бит/(Пиксели*Кадры) : 0.248
    Размер потока : 1, 18 Гбайт (80%)
    Библиотека кодирования : XviD 73
    Аудио
    Идентификатор : 1
    Формат : AC-3
    Формат/Информация : Audio Coding 3
    Коммерческое название : Dolby Digital
    Идентификатор кодека : 2000
    Продолжительность : 1 ч. 44 м.
    Вид битрейта : Постоянный
    Битрейт : 384 Кбит/сек
    Каналы : 6 каналов
    Channel layout : L R C LFE Ls Rs
    Частота : 48, 0 КГц
    Частота кадров : 31, 250 кадров/сек (1536 SPF)
    Битовая глубина : 16 бит
    Метод сжатия : С потерями
    Размер потока : 287 Мбайт (19%)
    Выравнивание : Разделение по промежуткам
    Продолжительность промежутка : 42 мс. (1, 00 видеокадр)
    Время предзагрузки промежутка : 500 мс.
    ServiceKind/String : Complete Main

    Скриншоты для ознакомления



    Все одноименные релизы в Клубе
    Время раздачи: с 14: 00 до 23: 00 (до появления первых 3-5 скачавших)


    Онлайн видео Рождественские хроники



    Рождественские хроники/The Christmas Chronicles (2018) WEB-DLRip
    Рейтинг →
     (голосов: 1, оценка 5/5, голосовать можно 1 раз )

    Другие торренты по теме:

  • Рождественские хроники / The Christmas Chronicles (2018) WEB-DL [H.264 / 1080p-LQ]
  • Рождественские хроники / The Christmas Chronicles (2018) WEB-DLRip [H.264]
  • Рождественские хроники / The Christmas Chronicles (2018) WEB-DL [1080p] ATV
  • Рождественские хроники / The Christmas Chronicles (2018) WEB-DLRip [H.265 / 2160p] [4K, HDR, 10-bit]
  • Рождественские хроники / The Christmas Chronicles (2018) WEB-DLRip [480p] iPod
  • Рождественские хроники / The Christmas Chronicles (2018) WEB-DLRip [576p] iPad
  • Рождественские хроники / The Christmas Chronicles (2018) WEB-DLRip [H.264] [MP4|1280x720]
  • Рождественские хроники / The Christmas Chronicles (2018) WEBRip [EN / RU, EN Sub]


    • Комментарии (0):

      Информация

      Информация

        Посетители, находящиеся в группе Гости, не могут оставлять комментарии в данной новости.

        ↓ Меню




        ↓ Опрос

        Вы добавили сайт в закладки?
        Да
        Нет


        Top 10 за месяц (Мультфильмы)