.
Авторизация | Регистрация
Хочешь лучшие торренты? Добавь свой email!
Добавить

Торрент скачать бесплатно

  • support: webmaster@btracker.club
» » О том, как Колька и Петька летали в Бразилию (1998) SATRip торрент скачать бесплатно


    О том, как Колька и Петька летали в Бразилию (1998) SATRip торрент скачать бесплатно

    Опубликовал: fregat | Дата: 25-12-2018, 05:00 | .torrent скачали: 0

    О том, как Колька и Петька летали в Бразилию (1998) SATRipПроизводство: Беларусь/Беларусьфильм
    Жанр: Короткометражный, детский
    Режиссер: Рената Грицкова

    Актеры
    Степан Галай, Вадим Жук, Александр Кашперов, Георгий Волчек, Леонид Осененко, Виктор Гудинович, Валерий Зеленский, Анри Наскидянц, Юрий Марецкий, Франц Лис

    Описание

    По рассказам Д. Хармса Сказка, О том, как Колька и Петька летали в Бразилию.
    О том, как неисправимому фантазеру Кольке ничего не стоит оказаться там, где очень хочется. О том, как обычные сосны превращаются в экзотические пальмы, а воробьи — в колибри. О том, как Колька рад показать всю эту красоту Петьке, да тот не все видит, потому, что верит. О том, как жизнь сама добавляет последний штрих, и чудесная фантазия побеждает черно-белое резонерство, и получается история О том, как Колька и Петька летали в Бразилию.

    Релиз от: Алехаndr
    Продолжительность: 00: 24: 59
    Качество видео: SATRip
    Субтитры: Отсутствуют
    Видео: Xvid, 640x480 (4: 3), ~1365 Kbps
    Аудио: AC3, 2 ch, 192 Kbps

    Общее
    Полное имя : D: О том, как Колька и Петька летали в Бразилию (1998).by.Алехаndr.avi
    Формат : AVI
    Формат/Информация : Audio Video Interleave
    Размер файла : 280 Мбайт
    Продолжительность : 24 м. 59 с.
    Общий поток : 1568 Кбит/сек
    Программа кодирования : VirtualDubMod 1.5.10.3 | (build 2550/release)
    Библиотека кодирования : VirtualDubMod build 2550/release
    Видео
    Идентификатор : 0
    Формат : MPEG-4 Visual
    Профиль формата : Advanced Simple@L5
    Настройки формата : BVOP2
    Параметр BVOP формата : 2
    Параметр QPel формата : Нет
    Параметр GMC формата : Без точки перехода
    Параметр матрицы формата : Default (H.263)
    Идентификатор кодека : XVID
    Идентификатор кодека/Подсказка : XviD
    Продолжительность : 24 м. 59 с.
    Битрейт : 1366 Кбит/сек
    Ширина : 640 пикселей
    Высота : 480 пикселей
    Соотношение сторон : 4: 3
    Частота кадров : 25, 000 кадров/сек
    Цветовое пространство : YUV
    Субдискретизация насыщенности : 4: 2: 0
    Битовая глубина : 8 бит
    Тип развёртки : Прогрессивная
    Метод сжатия : С потерями
    Бит/(Пиксели*Кадры) : 0.178
    Размер потока : 244 Мбайт (87%)
    Библиотека кодирования : XviD 73
    Аудио
    Идентификатор : 1
    Формат : AC-3
    Формат/Информация : Audio Coding 3
    Коммерческое название : Dolby Digital
    Идентификатор кодека : 2000
    Продолжительность : 24 м. 59 с.
    Вид битрейта : Постоянный
    Битрейт : 192 Кбит/сек
    Каналы : 2 канала
    Channel layout : L R
    Частота : 48, 0 КГц
    Частота кадров : 31, 250 кадров/сек (1536 SPF)
    Битовая глубина : 16 бит
    Метод сжатия : С потерями
    Размер потока : 34, 3 Мбайт (12%)
    Выравнивание : Разделение по промежуткам
    Продолжительность промежутка : 40 мс. (1, 00 видеокадр)
    Время предзагрузки промежутка : 500 мс.
    ServiceKind/String : Complete Main

    Скриншоты для ознакомления



    Все одноименные релизы в Клубе
    Время раздачи: 24/7 (круглосуточно) (до появления первых 3-5 скачавших)


    Онлайн видео А.А. Казак



    О том, как Колька и Петька летали в Бразилию (1998) SATRip
    Рейтинг →
     (голосов: 1, оценка 4/5, голосовать можно 1 раз )

    Другие торренты по теме:

  • Колька-опера (1978) DVB скачать через торрент бесплатно
  • Друг мой, Колька!.. (1961) DVDRip [H.264]
  • Друг мой, Колька!.. (1961) DVDRip
  • Друг мой, Колька!.. (1961) DVDRip


    • Комментарии (0):

      Информация

      Информация

        Посетители, находящиеся в группе Гости, не могут оставлять комментарии в данной новости.

        ↓ Меню




        ↓ Опрос

        Вы добавили сайт в закладки?
        Да
        Нет


        Top 10 за месяц (Мультфильмы)