.
Авторизация | Регистрация

Торрент скачать бесплатно

  • support: webmaster@btracker.club
» » Монкарт / Monkart (2017) WEBRip [H.264 / 1080p-LQ] (Сезон 1, 52 серии из 52) [UKR] торрент скачать бесплатно


    Монкарт / Monkart (2017) WEBRip [H.264 / 1080p-LQ] (Сезон 1, 52 серии из 52) [UKR] торрент скачать бесплатно

    Дата: 11-11-2018, 05:00 | .torrent скачали: 410

    Монкарт / Monkart (2017) WEBRip [H.264 / 1080p-LQ] (Сезон 1, 52 серии из 52) [UKR]Производство: Южная Корея, 3D Animation Studio SAMG
    Жанр: приключения, фантастика
    Режиссер: Сунг Чанг

    Описание

    Очень интересная история соревнований монстров на гоночных машинках. Главный из них - красный дракон Драка, который находит много друзей. Вместе они помогают принцессе королевства Кармон в преодолении злых сил рыцаря-предателя. Королевство Кармона - фантастический мир средневековья, в котором люди и монстры живут вместе. Monkart Race - самый популярный спорт в королевстве, поскольку высший титул это стать рыцарем. 12-летний Джин из села Латона также мечтает стать победителем в этих соревнованиях. Дестро, командир рыцарей, вступает в царство и пытается жениться на принцессе Сенна. Принцесса спасается благодаря Джину. Их встреча помогает проснуться монстру под названием Драка, который все время находился в мечи Джина. Теперь Джин, Сена и их монстры начинают интересные приключения, чтобы спасти королевство.
    Релиз от: sergiyko
    Продолжительность: ~00: 11: 20 серия
    Качество видео: WEBRip
    Перевод: Отсутствует
    Язык озвучки: украинский
    Озвучка/Автор перевода: ТК ПлюсПлюс
    Субтитры: отсутствуют
    Видео: AVC/H.264, 1920 х 1080, ~4890 kbps
    Аудио: AAC, 2 ch, 256 kbps

    General
    Unique ID : 323956781160875483233727530824102045370 (0xF3B7CE7A39901E3D327BEFB7FAA3E6BA)
    Complete name : E: MULTFILMSMonkart S01 1080p WEBRipMonkart.S01E01.1080p.WEBRip.mkv
    Format : Matroska
    Format version : Version 4/Version 2
    File size : 404 MiB
    Duration : 10 min 58 s
    Overall bit rate : 5 144 kb/s
    Movie name : Monkart S01 1080p WEBRip by sergiyko
    Encoded date : UTC 2018-10-17 08: 23: 48
    Writing application : mkvmerge v27.0.0 (\'Metropolis\') 64-bit
    Writing library : libebml v1.3.6 + libmatroska v1.4.9
    Video
    ID : 1
    Format : AVC
    Format/Info : Advanced Video Codec
    Format profile : High@L5
    Format settings : CABAC/6 Ref Frames
    Format settings, CABAC : Yes
    Format settings, ReFrames : 6 frames
    Codec ID : V_MPEG4/ISO/AVC
    Duration : 10 min 58 s
    Bit rate : 4 886 kb/s
    Width : 1 920 pixels
    Height : 1 080 pixels
    Display aspect ratio : 16: 9
    Frame rate mode : Constant
    Frame rate : 25.000 FPS
    Color space : YUV
    Chroma subsampling : 4: 2: 0
    Bit depth : 8 bits
    Scan type : Progressive
    Bits/(Pixel*Frame) : 0.094
    Stream size : 383 MiB (95%)
    Title : 01 Пробудження лицаря
    Language : English
    Default : Yes
    Forced : No
    Audio
    ID : 2
    Format : AAC
    Format/Info : Advanced Audio Codec
    Format profile : LC
    Codec ID : A_AAC-2
    Duration : 10 min 58 s
    Bit rate : 256 kb/s
    Channel(s) : 2 channels
    Channel positions : Front: L R
    Sampling rate : 44.1 kHz
    Frame rate : 43.066 FPS (1024 SPF)
    Compression mode : Lossy
    Stream size : 20.1 MiB (5%)
    Title : DUB AC3 | ПлюсПлюс
    Language : Ukrainian
    Default : Yes
    Forced : No


    Онлайн видео Монкарт



    Монкарт/Monkart (2017) WEBRip [H.264/1080p-LQ] (Сезон 1, 52 серии из 52) [UKR]
    Рейтинг →
     (голосов: 1, оценка 3/5, голосовать можно 1 раз )

    Другие торренты по теме:



      Комментарии (0):

      Информация

      Информация

        Посетители, находящиеся в группе Гости, не могут оставлять комментарии в данной новости.

        ↓ Меню




        ↓ Опрос

        Вы добавили сайт в закладки?
        Да
        Нет


        Top 10 за месяц (Мультфильмы)