.
Авторизация | Регистрация
Хочешь лучшие торренты? Добавь свой email!
Добавить

Торрент скачать бесплатно

  • support: webmaster@btracker.club
» » Чернокожие / Coonskin (1975) BDRip [H.264 / 720p-LQ] [AVO] торрент скачать бесплатно


    Чернокожие / Coonskin (1975) BDRip [H.264 / 720p-LQ] [AVO] торрент скачать бесплатно

    Опубликовал: fregat | Дата: 1-11-2018, 05:00 | .torrent скачали: 0

    Чернокожие / Coonskin (1975) BDRip [H.264 / 720p-LQ] [AVO]Производство: США, Albert S. Ruddy Productions, Bakshi Productions, Paramount Pictures
    Жанр: Рисованная анимация, Для взрослых, Боевик, Комедия
    Режиссер: Ральф Бакши

    Описание

    После убийства полицейского, закадычные друзья направляются в Гарлем, чтобы начать новую жизнь. Однако, в Гарлеме они сталкиваются с несправедливостью по отношению к черным братьям в лице черного спасителя, продажного полицейского и крестного отца. Ребятам придется показать себя.

    Возраст: 18+ (зрителям, достигшим 18 лет. запрещено для детей)
    Рейтинг MPAA: R (лицам до 17 лет обязательно присутствие взрослого)
    Дата мировой премьеры: 20 августа 1975
    Релиз от: BadBajo
    Продолжительность: 01: 22: 31
    Качество видео: BDRip
    Перевод: Авторский (одноголосый, закадровый) - А.Важенин (BadBajo)
    Озвучка/Автор перевода: BadBajo
    Субтитры: Немецкие (отключаемые)
    Видео: AVC/H.264, 1280х720, ~10, 4 Mbps
    Аудио: AC3, 2 ch, 384 Kbps l Русский (BadBajo)
    Аудио: AC3, 2 ch, 320 Kbps l Английский

    General
    Unique ID : 240064077535746972045892757796041290613 (0xB49AA8D8411CB5F934683C0F3D947375)
    Complete name : D: DownloadsCoonskin.1975.720p.BluRay.x264-CtrlHDCoonskin.1975.720p.BluRay.x264_rus_BadBajo.mkv
    Format : Matroska
    Format version : Version 4/Version 2
    File size : 6.41 GiB
    Duration : 1 h 22 min
    Overall bit rate : 11.1 Mb/s
    Movie name : Coonskin.1975.720p.BluRay.x264_rus_BadBajo
    Encoded date : UTC 2018-10-30 08: 37: 25
    Writing application : mkvmerge v20.0.0 ('I Am The Sun') 64-bit
    Writing library : libebml v1.3.5 + libmatroska v1.4.8
    Cover : Yes
    Attachments : cover.jpg
    Video
    ID : 1
    Format : AVC
    Format/Info : Advanced Video Codec
    Format profile : High@L4.1
    Format settings : CABAC/9 Ref Frames
    Format settings, CABAC : Yes
    Format settings, ReFrames : 9 frames
    Codec ID : V_MPEG4/ISO/AVC
    Duration : 1 h 22 min
    Bit rate : 10.4 Mb/s
    Width : 1 280 pixels
    Height : 720 pixels
    Display aspect ratio : 16: 9
    Frame rate mode : Constant
    Frame rate : 23.976 (24000/1001) FPS
    Color space : YUV
    Chroma subsampling : 4: 2: 0
    Bit depth : 8 bits
    Scan type : Progressive
    Bits/(Pixel*Frame) : 0.472
    Stream size : 6.01 GiB (94%)
    Title : Coonskin (1975)
    Writing library : x264 core 142 r2409+41 9f37d41 tMod 8-bit@4: 2: 0 X86_64
    Encoding settings : cabac=1/ref=9/deblock=1: -3: -3/analyse=0x3: 0x133/me=umh/subme=10/psy=1/fade_compensate=0.00/psy_rd=1.15: 0.00/mixed_ref=1/me_range=16/chroma_me=1/trellis=2/8x8dct=1/cqm=0/deadzone=21, 11/fast_pskip=0/chroma_qp_offset=-2/threads=6/lookahead_threads=1/sliced_threads=0/nr=0/decimate=0/interlaced=0/bluray_compat=0/constrained_intra=0/fgo=0/bframes=8/b_pyramid=2/b_adapt=2/b_bias=0/direct=3/weightb=1/open_gop=0/weightp=2/keyint=250/keyint_min=23/scenecut=40/intra_refresh=0/rc_lookahead=60/rc=crf/mbtree=0/crf=21.0000/qcomp=0.60/qpmin=0: 0: 0/qpmax=69: 69: 69/qpstep=4/vbv_maxrate=20000/vbv_bufsize=15000/crf_max=0.0/nal_hrd=none/filler=0/ip_ratio=1.30/pb_ratio=1.20/aq=1: 0.50/aq-sensitivity=7.50/aq-factor=1.00: 1.00: 1.00/aq2=1: 0.50/aq2-sensitivity=5.00/aq2-factor=1.00: 1.00: 1.00/aq3=1: 0.50: 0.50: 0.50: 0.50: 0.50: 0.50: 0.50: 0.50/aq3-sensitivity=5.00/aq3-factor=1.00: 1.00: 1.00: 1.00: 1.00: 1.00/aq3-boundary=205: 56: 9
    Language : English
    Default : Yes
    Forced : No
    Audio #1
    ID : 2
    Format : AC-3
    Format/Info : Audio Coding 3
    Codec ID : A_AC3
    Duration : 1 h 22 min
    Bit rate mode : Constant
    Bit rate : 384 kb/s
    Channel(s) : 2 channels
    Channel positions : Front: L R
    Sampling rate : 48.0 kHz
    Frame rate : 31.250 FPS (1536 SPF)
    Bit depth : 16 bits
    Compression mode : Lossy
    Stream size : 227 MiB (3%)
    Title : Coonskin.1975_rus_BadBajo
    Language : Russian
    Service kind : Complete Main
    Default : Yes
    Forced : Yes
    Audio #2
    ID : 3
    Format : AC-3
    Format/Info : Audio Coding 3
    Codec ID : A_AC3
    Duration : 1 h 22 min
    Bit rate mode : Constant
    Bit rate : 320 kb/s
    Channel(s) : 2 channels
    Channel positions : Front: L R
    Sampling rate : 48.0 kHz
    Frame rate : 31.250 FPS (1536 SPF)
    Bit depth : 16 bits
    Compression mode : Lossy
    Stream size : 189 MiB (3%)
    Title : Coonskin.1975_eng
    Language : English
    Service kind : Complete Main
    Default : No
    Forced : No
    Text
    ID : 4
    Format : UTF-8
    Codec ID : S_TEXT/UTF8
    Codec ID/Info : UTF-8 Plain Text
    Duration : 1 h 21 min
    Bit rate : 69 b/s
    Count of elements : 829
    Stream size : 41.0 KiB (0%)
    Title : German
    Language : German
    Default : No
    Forced : No
    Menu
    00: 00: 00.000 : en: Chapter 1
    00: 07: 08.428 : en: Chapter 2
    00: 14: 39.879 : en: Chapter 3
    00: 20: 13.212 : en: Chapter 4
    00: 27: 59.678 : en: Chapter 5
    00: 33: 20.999 : en: Chapter 6
    00: 40: 30.428 : en: Chapter 7
    00: 46: 55.813 : en: Chapter 8
    00: 54: 16.253 : en: Chapter 9
    01: 01: 06.663 : en: Chapter 10
    01: 09: 41.177 : en: Chapter 11
    01: 14: 25.461 : en: Chapter 12


    Онлайн видео Чернокожие



    Чернокожие/Coonskin (1975) BDRip [H.264/720p-LQ] [AVO]
    Рейтинг →
     (голосов: 1, оценка 4/5, голосовать можно 1 раз )

    Другие торренты по теме:



      Комментарии (0):

      Информация

      Информация

        Посетители, находящиеся в группе Гости, не могут оставлять комментарии в данной новости.

        ↓ Меню




        ↓ Опрос

        Вы добавили сайт в закладки?
        Да
        Нет


        Top 10 за месяц (Мультфильмы)