.
Авторизация | Регистрация
Хочешь лучшие торренты? Добавь свой email!
Добавить

Торрент скачать бесплатно

  • support: webmaster@btracker.club
» » Доктор Плюшева / Doc McStuffins (2015-2017) WEB-DL [H.264 / 1080p-LQ] (Сезон 3-4, серий 47 из 57) [UKR, EN] торрент скачать бесплатно


    Доктор Плюшева / Doc McStuffins (2015-2017) WEB-DL [H.264 / 1080p-LQ] (Сезон 3-4, серий 47 из 57) [UKR, EN] торрент скачать бесплатно

    Опубликовал: fregat | Дата: 1-11-2018, 05:00 | .torrent скачали: 0

    Доктор Плюшева / Doc McStuffins (2015-2017) WEB-DL [H.264 / 1080p-LQ] (Сезон 3-4, серий 47 из 57) [UKR, EN]Производство: США, Ирландия/Walt Disney
    Жанр: Детский
    Режиссер: Нортон Вирген, Мария Эстрада

    Описание

    Хорошим врачом может быть даже ребенок. Главное — желание помочь близким. В этом уверена 6-летняя героиня мультсериала Дотти, зовущая себя Доктор Плюшева, которая просто обожает свои игрушки. Стоит ей только поднести к ним стетоскоп, и они оживают!
    Теперь плюшевых зверей можно спросить о самочувствии, измерить им температуру и выписать рецепты, как настоящим пациентам. Вместе с помощниками — драконом Стаффи, овечкой Лэмми и бегемотиком Хэлли — Дотти каждый день учится соблюдать гигиену, правильно питаться и укреплять здоровье.

    Релиз от: sergiyko
    Продолжительность: 23: 50
    Качество видео: WEB-DL
    Перевод: Отсутствует
    Язык: украинский, английский
    Озвучка/Автор перевода: ТК ПлюсПлюс
    Субтитры: английские
    Видео: AVC/H.264, 1920 х 1080, ~5500 kbps
    Аудио #1: AC3, 2 ch, 192 kbps - украинский
    Аудио #2: AAC, 2 ch, 128 kbps - английский

    General
    Unique ID : 33580459633395879730823124403338796150 (0x19435C7C8BD49F7966CC99F5307EDC76)
    Complete name : E: MULTFILMSDoc McStuffins WEB-DL 1080pDoc McStuffins S04 WEB-DL 1080pS04E01.Welcome to McStuffinsville.Part 1.WEB-DL.1080p.mkv
    Format : Matroska
    Format version : Version 4
    File size : 928 MiB
    Duration : 22 min 30 s
    Overall bit rate : 5 762 kb/s
    Movie name : Doc McStuffins S04 WEB-DL 1080p by sergiyko
    Encoded date : UTC 2018-10-30 18: 23: 56
    Writing application : mkvmerge v28.1.0 ('Morning Child') 64-bit
    Writing library : libebml v1.3.6 + libmatroska v1.4.9
    Video
    ID : 1
    Format : AVC
    Format/Info : Advanced Video Codec
    Format profile : High@L4
    Format settings : CABAC/4 Ref Frames
    Format settings, CABAC : Yes
    Format settings, ReFrames : 4 frames
    Codec ID : V_MPEG4/ISO/AVC
    Duration : 22 min 30 s
    Bit rate : 5 505 kb/s
    Width : 1 920 pixels
    Height : 1 080 pixels
    Display aspect ratio : 16: 9
    Frame rate mode : Constant
    Frame rate : 23.976 (24000/1001) FPS
    Color space : YUV
    Chroma subsampling : 4: 2: 0
    Bit depth : 8 bits
    Scan type : Progressive
    Bits/(Pixel*Frame) : 0.111
    Stream size : 886 MiB (96%)
    Title : S04E01.Welcome to McStuffinsville.Part 1
    Language : English
    Default : Yes
    Forced : No
    Audio #1
    ID : 2
    Format : AC-3
    Format/Info : Audio Coding 3
    Commercial name : Dolby Digital
    Codec ID : A_AC3
    Duration : 22 min 30 s
    Bit rate mode : Constant
    Bit rate : 192 kb/s
    Channel(s) : 2 channels
    Channel layout : L R
    Sampling rate : 48.0 kHz
    Frame rate : 31.250 FPS (1536 SPF)
    Bit depth : 16 bits
    Compression mode : Lossy
    Stream size : 30.9 MiB (3%)
    Title : DUB AC3 | ПлюсПлюс
    Language : Ukrainian
    Service kind : Complete Main
    Default : Yes
    Forced : Yes
    Audio #2
    ID : 3
    Format : AAC LC SBR
    Format/Info : Advanced Audio Codec Low Complexity with Spectral Band Replication
    Commercial name : HE-AAC
    Format settings : Explicit
    Codec ID : A_AAC-2
    Duration : 22 min 30 s
    Bit rate : 64.0 kb/s
    Channel(s) : 2 channels
    Channel layout : L R
    Sampling rate : 48.0 kHz
    Frame rate : 23.438 FPS (2048 SPF)
    Compression mode : Lossy
    Stream size : 10.3 MiB (1%)
    Title : Original
    Language : English
    Default : No
    Forced : No
    Text
    ID : 4
    Format : UTF-8
    Codec ID : S_TEXT/UTF8
    Codec ID/Info : UTF-8 Plain Text
    Duration : 21 min 48 s
    Bit rate : 86 b/s
    Count of elements : 477
    Stream size : 13.8 KiB (0%)
    Language : English
    Default : No
    Forced : No


    Онлайн видео Доктор Плюшева



    Доктор Плюшева/Doc McStuffins (2015-2017) WEB-DL [H.264/1080p-LQ] (Сезон 3-4, серий 47 из 57) [UKR, EN]
    Рейтинг →
     (голосов: 1, оценка 4/5, голосовать можно 1 раз )

    Другие торренты по теме:

  • Доктор Плюшева / Doc McStuffins (2013-2014) WEB-DL [720p] (Сезон 02, Серии 01-23 из 23) скачать через торрент бесплатно
  • Доктор Плюшева / Doc McStuffins (2013-2016) SatRip (85 серий) [Обновляемая]
  • Доктор Плюшева / Doc McStuffins (2013-2014) WEB-DL [720p] (Сезон 02, Серии 01-26 из 26)
  • Доктор Плюшева / Doc McStuffins (2013-2016) SatRip (99 серий) [Обновляемая]


    • Комментарии (0):

      Информация

      Информация

        Посетители, находящиеся в группе Гости, не могут оставлять комментарии в данной новости.

        ↓ Меню




        ↓ Опрос

        Вы добавили сайт в закладки?
        Да
        Нет


        Top 10 за месяц (Мультфильмы)