.
Авторизация | Регистрация
Хочешь лучшие торренты? Добавь свой email!
Добавить

Торрент скачать бесплатно

  • support: webmaster@btracker.club
» » Снежная королева (1966) WEBRip [H.264 / 1080p-LQ] [PR] торрент скачать бесплатно


    Снежная королева (1966) WEBRip [H.264 / 1080p-LQ] [PR] торрент скачать бесплатно

    Опубликовал: fregat | Дата: 1-11-2018, 05:00 | .torrent скачали: 0

    Снежная королева (1966) WEBRip [H.264 / 1080p-LQ] [PR]Производство: СССР/Ленфильм
    Жанр: Фэнтези, драма, приключения, семейный
    Режиссер: Геннадий Казанский

    Актеры
    Елена Проклова, Слава Цюпа, Наталья Климова, Евгения Мельникова, Николай Боярский, Евгений Леонов, Ирина Губанова, Вера Титова, Эра Зиганшина

    Описание

    Фильм снят по одноименной пьесе Евгения Шварца, написанной по одноименной сказке Ганса Кристиана Андерсена.
    Фильм-сказка повествует о необыкновенном путешествии скромной маленькой девочки Герды. Она разыскивает своего друга Кея, которого похитила и унесла в свое царство Снежная королева — могущественная злая волшебница. В поисках любимого друга Герда попадает в замок к хитрому, коварному и в то же время смешному королю, знакомится с лесными разбойниками. На пути у девочки будет много преград до решающей битвы со Снежной королевой. Но верное сердце Герды одолеет все невзгоды…

    Возраст: 6+ (зрителям, достигшим 6 лет)
    Релиз от: Алехаndr
    Продолжительность: 01: 19: 26
    Качество видео: WEBRip
    Субтитры: Отсутствуют
    Видео: AVC/H.264, 1920x768, ~3200 Kbps
    Аудио #1: AC3, 6 ch, 448 Kbps
    Аудио #2: AC3, 2 ch, 192 Kbps

    Общее
    Уникальный идентификатор : 116228246290743573126356627054566494708 (0x5770BEF94C756F807C32B0A8EF12D1F4)
    Полное имя : D: Снежная королева (1966).by.Алехаndr.mkv
    Формат : Matroska
    Версия формата : Version 4
    Размер файла : 2, 13 Гбайт
    Продолжительность : 1 ч. 19 м.
    Общий поток : 3838 Кбит/сек
    Дата кодирования : UTC 2018-10-31 10: 23: 17
    Программа кодирования : mkvmerge v28.2.0 ('The Awakening') 64-bit
    Библиотека кодирования : libebml v1.3.6 + libmatroska v1.4.9/Lavf57.71.100
    Видео
    Идентификатор : 1
    Формат : AVC
    Формат/Информация : Advanced Video Codec
    Профиль формата : Main@L4
    Настройки формата : CABAC/1 Ref Frames
    Параметр CABAC формата : Да
    Параметр RefFrames формата : 1 кадр
    Идентификатор кодека : V_MPEG4/ISO/AVC
    Продолжительность : 1 ч. 19 м.
    Битрейт : 3196 Кбит/сек
    Ширина : 1920 пикселей
    Высота : 768 пикселей
    Соотношение сторон : 2, 500
    Режим частоты кадров : Постоянный
    Частота кадров : 25, 000 кадров/сек
    Цветовое пространство : YUV
    Субдискретизация насыщенности : 4: 2: 0
    Битовая глубина : 8 бит
    Тип развёртки : Прогрессивная
    Бит/(Пиксели*Кадры) : 0.087
    Размер потока : 1, 77 Гбайт (83%)
    Default : Да
    Forced : Нет
    Аудио #1
    Идентификатор : 2
    Формат : AC-3
    Формат/Информация : Audio Coding 3
    Коммерческое название : Dolby Digital
    Идентификатор кодека : A_AC3
    Продолжительность : 1 ч. 19 м.
    Вид битрейта : Постоянный
    Битрейт : 448 Кбит/сек
    Каналы : 6 каналов
    Channel layout : L R C LFE Ls Rs
    Частота : 48, 0 КГц
    Частота кадров : 31, 250 кадров/сек (1536 SPF)
    Битовая глубина : 16 бит
    Метод сжатия : С потерями
    Задержка видео : 4 мс.
    Размер потока : 255 Мбайт (12%)
    ServiceKind/String : Complete Main
    Default : Нет
    Forced : Нет
    Аудио #2
    Идентификатор : 3
    Формат : AC-3
    Формат/Информация : Audio Coding 3
    Коммерческое название : Dolby Digital
    Идентификатор кодека : A_AC3
    Продолжительность : 1 ч. 19 м.
    Вид битрейта : Постоянный
    Битрейт : 192 Кбит/сек
    Каналы : 2 канала
    Channel layout : L R
    Частота : 48, 0 КГц
    Частота кадров : 31, 250 кадров/сек (1536 SPF)
    Битовая глубина : 16 бит
    Метод сжатия : С потерями
    Размер потока : 109 Мбайт (5%)
    ServiceKind/String : Complete Main
    Default : Да
    Forced : Нет

    Скриншоты для ознакомления



    Все одноименные релизы в Клубе
    Время раздачи: 24/7 (круглосуточно) (до появления первых 3-5 скачавших)


    Онлайн видео Снежная королева (1966) WEBRip [H.264



    Снежная королева (1966) WEBRip [H.264/1080p-LQ] [PR]
    Рейтинг →
     (голосов: 1, оценка 3/5, голосовать можно 1 раз )

    Другие торренты по теме:

  • Снежная королева 2: Перезаморозка (2014) WEBRip скачать через торрент бесплатно
  • Снежная королева 2: Перезаморозка (2014) WEBRip [H.264 / 720p-LQ] скачать через торрент бесплатно
  • Снежная королева 2: Перезаморозка (2014) WEBRip [H.264] скачать через торрент бесплатно
  • Снежная королева 2: Перезаморозка (2014) WEB-DLRip
  • Снежная королева 2: Перезаморозка (2014) WEB-DL [720p]
  • Снежная королева 2: Перезаморозка (2014) WEB-DL [H.264 / 1080p-LQ]
  • Виктор Запаренко | Поиграем в сказку. Щелкунчик. Снежная королева. Книга-игра. 6-8 лет (2002) [PDF] скачать через торрент бесплатно
  • Снежная королева 2: Перезаморозка (2014) BDRip 3D [H.264 / 1080p] [Вертикальная анаморфная стереопара] [hand made 16:9]


    • Комментарии (0):

      Информация

      Информация

        Посетители, находящиеся в группе Гости, не могут оставлять комментарии в данной новости.

        ↓ Меню




        ↓ Опрос

        Вы добавили сайт в закладки?
        Да
        Нет


        Top 10 за месяц (Мультфильмы)