.
Авторизация | Регистрация
Хочешь лучшие торренты? Добавь свой email!
Добавить

Торрент скачать бесплатно

  • support: webmaster@btracker.club
» » Конь БоДжек / BoJack Horseman (2017) WEBRip [H.264 / 1080p-LQ] (сезон 5, серии 1-12 из 12) NewStudio торрент скачать бесплатно


    Конь БоДжек / BoJack Horseman (2017) WEBRip [H.264 / 1080p-LQ] (сезон 5, серии 1-12 из 12) NewStudio торрент скачать бесплатно

    Опубликовал: fregat | Дата: 1-11-2018, 05:00 | .torrent скачали: 0

    Конь БоДжек / BoJack Horseman (2017) WEBRip [H.264 / 1080p-LQ] (сезон 5, серии 1-12 из 12) NewStudioПроизводство: Netflix
    Жанр: Для взрослых, мультфильм, драма, комедия
    Режиссер: Рафаэль Боб-Уоксберг/Raphael Bob-Waksberg и др.

    Описание

    Действие происходит в мире населенном антропоморфными животными и людьми. Большая часть сюжета происходит в Лос-Анджелесе. БоДжек — звезда ситуационной комедии, популярной в конце 80-х — начале 90-х годов, на момент времени происходящего в сериале, БоДжек переживает кризис среднего возраста. В попытках вернуть былую популярность и любовь публики, БоДжек пытается написать автобиографию. Но не справляется с этим ввиду собственной лени, после уговоров агента и издателя, он нанимает писателя Диану Нгуен, которая проводит с ним много времени интервьюируя его, узнавая о его прошлом и работе в сериале. Впоследствии между ними возникает симпатия. Сюжет подается нам вперемешку с воспоминаниями БоДжека и его нынешним положением. Под конец первого сезон любимого сериалаа, вся сюжетная линия объединяется и зритель видит полную картину жизненного пути Коня БоДжека.

    Возраст: 18+ (зрителям, достигшим 18 лет. запрещено для детей)
    Продолжительность: ~00: 25: 00 серия
    Качество видео: WEB-DL
    Перевод: Многоголосый закадровый, профессиональный (без рекламы)
    Озвучка/Автор перевода: NewStudio
    Субтитры: Русские (forced), Английские
    Видео: AVC/H.264, 1920x1080 (16: 9), ~5000 Kbps
    Аудио # 1: Russian: 48 kHz, AC3 Dolby Digital, 5.1 ch, ~384 kbps | Студия NewStudio
    Аудио # 2: English: 48 kHz, E-AC3 Dolby Digital, 5.1 ch, ~640 kbps

    General
    Unique ID : 49054348333804730221145192662916189551 (0x24E7861A1B2A3071A7038D6BEAB0CD6F)
    Complete name : Bojack Horseman - Season 5Bojack.Horseman.S05E01.The.Light.Bulb.Scene.Web-DL.1080p.mkv
    Format : Matroska
    Format version : Version 4/Version 2
    File size : 1.15 GiB
    Duration : 26 min 14 s
    Overall bit rate mode : Variable
    Overall bit rate : 6 253 kb/s
    Movie name : The Light Bulb Scene
    Encoded date : UTC 2018-09-16 04: 51: 34
    Writing application : mkvmerge v26.0.0 ('In The Game') 64-bit
    Writing library : libebml v1.3.6 + libmatroska v1.4.9
    Attachments : poster.jpg
    Video
    ID : 1
    Format : AVC
    Format/Info : Advanced Video Codec
    Format profile : Main@L4
    Format settings : CABAC/3 Ref Frames
    Format settings, CABAC : Yes
    Format settings, ReFrames : 3 frames
    Codec ID : V_MPEG4/ISO/AVC
    Duration : 26 min 13 s
    Bit rate mode : Variable
    Bit rate : 5 360 kb/s
    Maximum bit rate : 8 040 kb/s
    Width : 1 920 pixels
    Height : 1 080 pixels
    Display aspect ratio : 16: 9
    Frame rate mode : Constant
    Frame rate : 23.976 (24000/1001) FPS
    Color space : YUV
    Chroma subsampling : 4: 2: 0
    Bit depth : 8 bits
    Scan type : Progressive
    Bits/(Pixel*Frame) : 0.108
    Stream size : 980 MiB (84%)
    Title : S05E01. Конь БоДжек/BoJack Horseman
    Writing library : x264 core 148 r2715 7e75228
    Encoding settings : cabac=1/ref=3/deblock=1: 0: 0/analyse=0x1: 0x111/me=umh/subme=10/psy=1/psy_rd=1.00: 0.00/mixed_ref=1/me_range=24/chroma_me=1/trellis=2/8x8dct=0/cqm=0/deadzone=21, 11/fast_pskip=1/chroma_qp_offset=-2/threads=8/lookahead_threads=1/sliced_threads=0/nr=0/decimate=1/interlaced=0/bluray_compat=0/stitchable=1/constrained_intra=0/bframes=2/b_pyramid=0/b_adapt=2/b_bias=0/direct=3/weightb=1/open_gop=0/weightp=2/keyint=48/keyint_min=25/scenecut=0/intra_refresh=0/rc_lookahead=48/rc=2pass/mbtree=1/bitrate=5360/ratetol=1.0/qcomp=0.50/qpmin=6/qpmax=51/qpstep=4/cplxblur=20.0/qblur=0.5/vbv_maxrate=8040/vbv_bufsize=10720/nal_hrd=vbr/filler=0/ip_ratio=1.40/aq=1: 1.00
    Language : English
    Default : Yes
    Forced : No
    Audio #1
    ID : 2
    Format : AC-3
    Format/Info : Audio Coding 3
    Codec ID : A_AC3
    Duration : 26 min 14 s
    Bit rate mode : Constant
    Bit rate : 384 kb/s
    Channel(s) : 6 channels
    Channel positions : Front: L C R, Side: L R, LFE
    Sampling rate : 48.0 kHz
    Frame rate : 31.250 FPS (1536 SPF)
    Bit depth : 16 bits
    Compression mode : Lossy
    Stream size : 72.1 MiB (6%)
    Title : MVO NewStudio
    Language : Russian
    Service kind : Complete Main
    Default : Yes
    Forced : No
    Audio #2
    ID : 3
    Format : E-AC-3
    Format/Info : Enhanced Audio Coding 3
    Codec ID : A_EAC3
    Duration : 26 min 14 s
    Bit rate mode : Constant
    Bit rate : 640 kb/s
    Channel(s) : 6 channels
    Channel positions : Front: L C R, Side: L R, LFE
    Sampling rate : 48.0 kHz
    Frame rate : 187.500 FPS (256 SPF)
    Compression mode : Lossy
    Stream size : 120 MiB (10%)
    Title : Original
    Language : English
    Service kind : Complete Main
    Default : No
    Forced : No
    Text #1
    ID : 4
    Format : ASS
    Codec ID : S_TEXT/ASS
    Codec ID/Info : Advanced Sub Station Alpha
    Duration : 19 min 28 s
    Bit rate : 2 b/s
    Count of elements : 7
    Compression mode : Lossless
    Stream size : 419 Bytes (0%)
    Title : Forced
    Language : Russian
    Default : Yes
    Forced : Yes
    Text #2
    ID : 5
    Format : UTF-8
    Codec ID : S_TEXT/UTF8
    Codec ID/Info : UTF-8 Plain Text
    Duration : 25 min 23 s
    Bit rate : 123 b/s
    Count of elements : 551
    Stream size : 22.9 KiB (0%)
    Language : English
    Default : No
    Forced : No
    Menu
    00: 00: 00.000 : en: The Light Bulb Scene
    00: 01: 32.593 : en: Intro
    00: 02: 26.396 : en: The Light Bulb Scene
    00: 24: 45.901 : en: Outro
    1. Свет софитов/The Light Bulb Scene
    2. Собачьи дни закончились/The Dog Days Are Over
    3. Запланированное устаревание/Planned Obsolescence
    4. БоДжек - феминист/BoJack the Feminist
    5. История Эмилии Эрхарт/The Amelia Earheart Story
    6. Бесплатные чуррос/Free Churro
    7. INT. SUB/INT. SUB
    8. Мистер Подхвост Боос/Mr. Peanutbutter's Boos
    9. Древняя история/Ancient History
    10. Витать в облаках/Head in the Clouds
    12. Шоу-стоппер/The Showstopper
    13. Остановленное шоу/The Stopped Show

    Скриншоты для ознакомления



    Все одноименные релизы в Клубе
    Время раздачи: 24/7 (до появления первых 3-5 скачавших)


    Онлайн видео Конь БоДжек



    Конь БоДжек/BoJack Horseman (2017) WEBRip [H.264/1080p-LQ] (сезон 5, серии 1-12 из 12) NewStudio
    Рейтинг →
     (голосов: 1, оценка 3/5, голосовать можно 1 раз )

    Другие торренты по теме:

  • Конь БоДжек / BoJack Horseman (2014) WEBRip (Сезон 1, серии 1-12 из 12) (NewStudio) [18+]
  • Конь БоДжек / BoJack Horseman (2015) WEBRip (Сезон 2, серии 1-12 из 12) (NewStudio) [18+] скачать через торрент бесплатно
  • Конь БоДжек / BoJack Horseman (2015) WEBRip (Сезон 2, серии 1-12 из 12) [1080p] (NewStudio) [18+] скачать через торрент бесплатно
  • Конь БоДжек / BoJack Horseman (2016) WEB [H.264 / 1080p-LQ] (Сезон 3, серии 1-7 из 12) Newstudio (обновляемая)
  • Конь БоДжек / BoJack Horseman (2016) WEB-DL [H.264 / 1080p-LQ] (Сезон 1-3, серии 1-37 из 37) Newstudio
  • Конь БоДжек / BoJack Horseman (2017) WEBRip [H.264 / 1080p-LQ] (сезон 4, серии 1-5 из 12) OMSKBIRD (обновляемая) [AD]


    • Комментарии (0):

      Информация

      Информация

        Посетители, находящиеся в группе Гости, не могут оставлять комментарии в данной новости.

        ↓ Меню




        ↓ Опрос

        Вы добавили сайт в закладки?
        Да
        Нет


        Top 10 за месяц (Мультфильмы)