.
Авторизация | Регистрация
Хочешь лучшие торренты? Добавь свой email!
Добавить

Торрент скачать бесплатно

  • support: webmaster@btracker.club
» » Сочинение (1970) TVRip торрент скачать бесплатно


    Сочинение (1970) TVRip торрент скачать бесплатно

    Опубликовал: fregat | Дата: 31-10-2018, 05:00 | .torrent скачали: 0

    Сочинение (1970) TVRipПроизводство: СССР/Беларусьфильм
    Жанр: Короткометражный, детский, семейный
    Режиссер: Игорь Коловский

    Актеры
    Миша Фомченков, Андрей Бобок, Ира Красильникова, Алла Мещерякова, Светлана Старикова

    Описание

    О единении детской фантазии с восприятием неповторимой красоты окружающей природы. Для героя фильма Яши это восприятие также непосредственно связано с яркими поэтическими образами, с которыми его познакомили в школе.

    Релиз от: Алехаndr
    Продолжительность: 00: 27: 34
    Качество видео: TVRip
    Субтитры: Отсутствуют
    Видео: Xvid, 704x528 (4: 3), ~2000 Kbps
    Аудио: MP3, 2 ch, 192 Kbps

    Общее
    Полное имя : D: Сочинение (1970).by.Алехаndr.avi
    Формат : AVI
    Формат/Информация : Audio Video Interleave
    Размер файла : 434 Мбайт
    Продолжительность : 27 м. 34 с.
    Общий поток : 2199 Кбит/сек
    Программа кодирования : VirtualDubMod 1.5.10.3 | (build 2550/release)
    Библиотека кодирования : VirtualDubMod build 2550/release
    Видео
    Идентификатор : 0
    Формат : MPEG-4 Visual
    Профиль формата : Advanced Simple@L5
    Настройки формата : BVOP2
    Параметр BVOP формата : 2
    Параметр QPel формата : Нет
    Параметр GMC формата : Без точки перехода
    Параметр матрицы формата : Default (H.263)
    Идентификатор кодека : XVID
    Идентификатор кодека/Подсказка : XviD
    Продолжительность : 27 м. 34 с.
    Битрейт : 1997 Кбит/сек
    Ширина : 704 пикселя
    Высота : 528 пикселей
    Соотношение сторон : 4: 3
    Частота кадров : 25, 000 кадров/сек
    Цветовое пространство : YUV
    Субдискретизация насыщенности : 4: 2: 0
    Битовая глубина : 8 бит
    Тип развёртки : Прогрессивная
    Метод сжатия : С потерями
    Бит/(Пиксели*Кадры) : 0.215
    Размер потока : 394 Мбайт (91%)
    Библиотека кодирования : XviD 73
    Аудио
    Идентификатор : 1
    Формат : MPEG Audio
    Версия формата : Version 1
    Профиль формата : Layer 3
    Идентификатор кодека : 55
    Идентификатор кодека/Подсказка : MP3
    Продолжительность : 27 м. 33 с.
    Вид битрейта : Постоянный
    Битрейт : 192 Кбит/сек
    Каналы : 2 канала
    Частота : 48, 0 КГц
    Частота кадров : 41, 667 кадра/сек (1152 SPF)
    Метод сжатия : С потерями
    Размер потока : 37, 9 Мбайт (9%)
    Выравнивание : Соединение по промежуткам
    Продолжительность промежутка : 40 мс. (1, 00 видеокадр)
    Время предзагрузки промежутка : 504 мс.
    Библиотека кодирования : LAME3.99r
    Настройки программы : -m s -V 4 -q 0 -lowpass 18.6 -b 192

    Скриншоты для ознакомления



    Все одноименные релизы в Клубе
    Время раздачи: 24/7 (круглосуточно) (до появления первых 3-5 скачавших)


    Онлайн видео Екатерина Бурмистрова



    Сочинение (1970) TVRip
    Рейтинг →
     (голосов: 1, оценка 5/5, голосовать можно 1 раз )

    Другие торренты по теме:

  • О.М. Корчажкина | Английский язык. 10-11 классы. Пишем сочинение-рассуждение на ЕГЭ: практика аргументации (2015) [PDF] скачать через торрент бесплатно
  • Яан Раннап и др. | Марью пишет сочинение (1978) [FB2]


    • Комментарии (0):

      Информация

      Информация

        Посетители, находящиеся в группе Гости, не могут оставлять комментарии в данной новости.

        ↓ Меню




        ↓ Опрос

        Вы добавили сайт в закладки?
        Да
        Нет


        Top 10 за месяц (Мультфильмы)