.
Авторизация | Регистрация
Хочешь лучшие торренты? Добавь свой email!
Добавить

Торрент скачать бесплатно

  • support: webmaster@btracker.club
» » Sayonara no Asa ni Yakusoku no Hana o Kazarou | Maquia: When the Promised Flower Blooms | Укрась прощальное утро цветами обещания [2018, Movie] BDRemux 1080p raw+rus торрент скачать бесплатно


    Sayonara no Asa ni Yakusoku no Hana o Kazarou | Maquia: When the Promised Flower Blooms | Укрась прощальное утро цветами обещания [2018, Movie] BDRemux 1080p raw+rus торрент скачать бесплатно

    Опубликовал: fregat | Дата: 30-10-2018, 05:00 | .torrent скачали: 0

    Sayonara no Asa ni Yakusoku no Hana o Kazarou | Maquia: When the Promised Flower Blooms | Укрась прощальное утро цветами обещания [2018, Movie] BDRemux 1080p raw+rusТип: Movie
    Жанр: Фэнтези, Драма
    Продолжительность: 115 мин
    Дата выпуска: 24.02.2018
    Производство: P.A. Works
    Режиссер: Окада Мари
    Ссылки: World-Art

    Описание

    Красавица Макия — из рода бессмертных. На протяжении веков многие армии пытались захватить её народ, чтобы завладеть секретом вечной жизни. И вот теперь, когда город разрушен, девушка прячется в лесу. Здесь она встречает потерявшего родителей маленького мальчика Эриала и начинает о нём заботиться.
    Проходят годы, мальчик превращается в прекрасного юношу, и у беглецов возникают чувства друг к другу. Но Макия понимает, что Эриал — простой человек, а значит, он смертен.
    Язык озвучки: Японский и русский
    Субтитры: Отсутствуют
    Качество видео: BDRemux
    Формат видео: AVC/H.264, 23.976 FPS, 0.714 bit/pixel
    Размер кадра: 1920х1080
    Битрейт видео: 35.5 Mb/s
    Аудио 1: JAP - TrueHD 48.0 kHz 6ch - 3 341 kb/s Original
    Аудио 2: JAP - FLAC 48.0 kHz 2ch - 1 355 kb/s Original
    Аудио 3: RUS - AAC 48.0 kHz 2ch - 192 kb/s Reanimedia
    В сценах (58: 40 - 59: 58) и (01: 02: 28 - 01: 03: 18) - Отсутствует дубляж из-за цензуры.

    Скриншоты для ознакомления



    General
    Unique ID : 169203500345906834371903852307172214796 (0x7F4B68A730E3A53428B9F8F0BF96C80C)
    Complete name : H: Anime_TorrentЃ8 Sayonara_no_Asa_ni_Yakusoku_no_Hana_o_Kazarou.mkv
    Format : Matroska
    Format version : Version 4/Version 2
    File size : 32.5 GiB
    Duration : 1 h 54 min
    Overall bit rate mode : Variable
    Overall bit rate : 40.5 Mb/s
    Encoded date : UTC 2018-10-29 14: 59: 14
    Writing application : mkvmerge v28.2.0 ('The Awakening') 64-bit
    Writing library : libebml v1.3.6 + libmatroska v1.4.9
    Video
    ID : 1
    Format : AVC
    Format/Info : Advanced Video Codec
    Format profile : High@L4.1
    Format settings : CABAC/2 Ref Frames
    Format settings, CABAC : Yes
    Format settings, ReFrames : 2 frames
    Codec ID : V_MPEG4/ISO/AVC
    Duration : 1 h 54 min
    Bit rate mode : Variable
    Bit rate : 35.5 Mb/s
    Width : 1 920 pixels
    Height : 1 080 pixels
    Display aspect ratio : 16: 9
    Frame rate mode : Constant
    Frame rate : 23.976 (24000/1001) FPS
    Color space : YUV
    Chroma subsampling : 4: 2: 0
    Bit depth : 8 bits
    Scan type : Progressive
    Bits/(Pixel*Frame) : 0.714
    Stream size : 28.5 GiB (88%)
    Language : Japanese
    Default : Yes
    Forced : No
    Audio #1
    ID : 2
    Format : MLP FBA
    Commercial name : TrueHD
    Codec ID : A_TRUEHD
    Duration : 1 h 54 min
    Bit rate mode : Variable
    Bit rate : 3 341 kb/s
    Maximum bit rate : 5 148 kb/s
    Channel(s) : 6 channels
    Channel layout : L R C LFE Ls Rs
    Sampling rate : 48.0 kHz
    Frame rate : 1 200.000 FPS (40 SPF)
    Compression mode : Lossless
    Stream size : 2.68 GiB (8%)
    Title : Original 5.1
    Language : Japanese
    Default : No
    Forced : No
    Audio #2
    ID : 3
    Format : FLAC
    Format/Info : Free Lossless Audio Codec
    Codec ID : A_FLAC
    Duration : 1 h 54 min
    Bit rate mode : Variable
    Bit rate : 1 355 kb/s
    Channel(s) : 2 channels
    Channel layout : L R
    Sampling rate : 48.0 kHz
    Frame rate : 11.719 FPS (4096 SPF)
    Bit depth : 24 bits
    Compression mode : Lossless
    Stream size : 1.09 GiB (3%)
    Title : Original 2.0
    Writing library : libFLAC 1.2.1 (UTC 2007-09-17)
    Language : Japanese
    Default : Yes
    Forced : No
    Audio #3
    ID : 4
    Format : AAC LC
    Format/Info : Advanced Audio Codec Low Complexity
    Codec ID : A_AAC-2
    Duration : 1 h 54 min
    Bit rate : 192 kb/s
    Channel(s) : 2 channels
    Channel layout : L R
    Sampling rate : 48.0 kHz
    Frame rate : 46.875 FPS (1024 SPF)
    Compression mode : Lossy
    Stream size : 155 MiB (0%)
    Title : Reanimedia
    Language : Russian
    Default : No
    Forced : No
    Время раздачи: Пн-Вс с 14: 00 до 00: 00 (до появления первых 3-6 скачавших)


    Онлайн видео Sayonara no Asa ni Yakusoku no Hana o Kazarou



    Sayonara no Asa ni Yakusoku no Hana o Kazarou | Maquia: When the Promised Flower Blooms | Укрась прощальное утро цветами обещания [2018, Movie] BDRemux 1080p raw+rus
    Рейтинг →
     (голосов: 1, оценка 5/5, голосовать можно 1 раз )

    Другие торренты по теме:

  • Sayonara no Asa ni Yakusoku no Hana o Kazarou | Maquia: When the Promised Flower Blooms | Укрась прощальное утро цветами обещания [2018, Movie] BDrip 1080p rus
  • Sayonara no Asa ni Yakusoku no Hana o Kazarou | Maquia: When the Promised Flower Blooms | Укрась прощальное утро цветами обещания [2018, Movie] BDRip 1080p rus


    • Комментарии (0):

      Информация

      Информация

        Посетители, находящиеся в группе Гости, не могут оставлять комментарии в данной новости.

        ↓ Меню




        ↓ Опрос

        Вы добавили сайт в закладки?
        Да
        Нет


        Top 10 за месяц (Мультфильмы)