.
Авторизация | Регистрация
Хочешь лучшие торренты? Добавь свой email!
Добавить

Торрент скачать бесплатно

  • support: webmaster@btracker.club
» » Пришельцы в доме / Luis and His Friends from Outer Space (2018) BDRip [H.264 / 1080p-LQ] [EN] [PR] торрент скачать бесплатно


    Пришельцы в доме / Luis and His Friends from Outer Space (2018) BDRip [H.264 / 1080p-LQ] [EN] [PR] торрент скачать бесплатно

    Опубликовал: fregat | Дата: 30-10-2018, 05:00 | .torrent скачали: 1

    Пришельцы в доме / Luis and His Friends from Outer Space (2018) BDRip [H.264 / 1080p-LQ] [EN] [PR]Производство: Германия, Люксембург, Дания/Ulysses Filmproduktion, Fabrique d'Images, A. Film
    Жанр: Мультфильм, Приключения, Комедия, Семейный, Фантастика
    Режиссер: Кристоф Лауэнштайн, Вольфганг Лауэнштайн, Шон МакКормак

    Описание

    У 12-летнего Луиса нет друзей, а у его отца постоянно не хватает на него времени. Тот страстно увлечен уфологией и даже не догадывается, что те, кого он так жаждет найти, находятся прямо у него перед носом. Луис становится единственным свидетелем аварийной посадки трех чудаковатых инопланетян рядом с их домом. Троица пришельцев быстро находит общий язык с мальчиком. Они ведут себя точь-в-точь как озорные подростки, и обладают к тому же совершенно удивительной способностью — перевоплощаться в любое живое существо. Луис еще никогда так не веселился, как рядом с ними. Но он быстро понимает, что если взрослые узнают о его тайне, ничем хорошим это не закончится. Поэтому он решает помочь им починить тарелку и улететь вместе с ними…

    Возраст: 6+ (зрителям, достигшим 6 лет)
    Рейтинг MPAA: PG (рекомендуется присутствие родителей)
    Дата мировой премьеры: 2 марта 2018, ...
    Дата российской премьеры: 4 октября 2018, Наше Кино 3D
    Продолжительность: 01: 25: 15
    Качество видео: BDRip 1080p
    Перевод: Отсутствует
    Язык озвучки: Английский
    Субтитры: Отсутствуют
    Видео: AVC/H264, 1920x1040 (1.85: 1), 24.000 fps, 5828 Kbps
    Аудио: DTS, 6 ch, 1510 Kbps (English)
    General
    Unique ID : 229851785375719295248232992329339315034 (0xACEBD7F7A68688F6BE85DDD2FBE9235A)
    Complete name : Luis.And.The.Aliens.2018.1080p.BluRay.x264-SNOW.mkv
    Format : Matroska
    Format version : Version 4
    File size : 4.37 GiB
    Duration : 1 h 25 min
    Overall bit rate : 7 338 kb/s
    Encoded date : UTC 2018-10-27 19: 08: 25
    Writing application : mkvmerge v8.5.2 ('DiAMOND') 64bit
    Writing library : libebml v1.3.3 + libmatroska v1.4.4
    Video
    ID : 1
    Format : AVC
    Format/Info : Advanced Video Codec
    Format profile : High@L4.1
    Format settings : CABAC/4 Ref Frames
    Format settings, CABAC : Yes
    Format settings, ReFrames : 4 frames
    Codec ID : V_MPEG4/ISO/AVC
    Duration : 1 h 25 min
    Bit rate : 5 828 kb/s
    Width : 1 920 pixels
    Height : 1 040 pixels
    Display aspect ratio : 1.85: 1
    Frame rate mode : Constant
    Frame rate : 24.000 FPS
    Color space : YUV
    Chroma subsampling : 4: 2: 0
    Bit depth : 8 bits
    Scan type : Progressive
    Bits/(Pixel*Frame) : 0.122
    Stream size : 3.38 GiB (77%)
    Writing library : x264 core 155 r2901 7d0ff22
    Encoding settings : cabac=1/ref=4/deblock=1: 0: 0/analyse=0x3: 0x113/me=umh/subme=8/psy=1/psy_rd=1.00: 0.00/mixed_ref=1/me_range=16/chroma_me=1/trellis=1/8x8dct=1/cqm=0/deadzone=21, 11/fast_pskip=1/chroma_qp_offset=-2/threads=24/lookahead_threads=4/sliced_threads=0/nr=0/decimate=1/interlaced=0/bluray_compat=0/constrained_intra=0/bframes=3/b_pyramid=2/b_adapt=1/b_bias=0/direct=3/weightb=1/open_gop=0/weightp=2/keyint=240/keyint_min=24/scenecut=40/intra_refresh=0/rc_lookahead=50/rc=2pass/mbtree=1/bitrate=5828/ratetol=1.0/qcomp=0.60/qpmin=0/qpmax=69/qpstep=4/cplxblur=20.0/qblur=0.5/ip_ratio=1.40/aq=1: 1.00
    Language : English
    Default : Yes
    Forced : No
    Audio
    ID : 2
    Format : DTS
    Format/Info : Digital Theater Systems
    Codec ID : A_DTS
    Duration : 1 h 25 min
    Bit rate mode : Constant
    Bit rate : 1 509 kb/s
    Channel(s) : 6 channels
    Channel layout : C L R Ls Rs LFE
    Sampling rate : 48.0 kHz
    Frame rate : 93.750 FPS (512 SPF)
    Bit depth : 24 bits
    Compression mode : Lossy
    Stream size : 920 MiB (21%)
    Language : English
    Default : Yes
    Forced : No
    Menu
    00: 00: 00.000 : en: 00: 00: 00.000
    00: 11: 02.542 : en: 00: 11: 02.542
    00: 19: 54.667 : en: 00: 19: 54.667
    00: 29: 11.792 : en: 00: 29: 11.792
    00: 39: 30.333 : en: 00: 39: 30.333
    00: 47: 49.083 : en: 00: 47: 49.083
    00: 55: 58.417 : en: 00: 55: 58.417
    01: 05: 02.000 : en: 01: 05: 02.000
    01: 16: 40.625 : en: 01: 16: 40.625

    Скриншоты для ознакомления





    Все одноименные релизы в Клубе
    Время раздачи: 24/7 (круглосуточно) (до появления первых 3-5 скачавших)


    Онлайн видео Пришельцы в доме



    Пришельцы в доме/Luis and His Friends from Outer Space (2018) BDRip [H.264/1080p-LQ] [EN] [PR]
    Рейтинг →
     (голосов: 1, оценка 5/5, голосовать можно 1 раз )

    Другие торренты по теме:

  • Пришельцы в доме / Luis and His Friends from Outer Space (2018) WEB-DLRip
  • Пришельцы в доме / Luis and His Friends from Outer Space (2018) WEB-DL [H.264 / 1080p-LQ]
  • Пришельцы в доме / Luis and His Friends from Outer Space (2018) WEB-DL [1080p] ATV


    • Комментарии (0):

      Информация

      Информация

        Посетители, находящиеся в группе Гости, не могут оставлять комментарии в данной новости.

        ↓ Меню




        ↓ Опрос

        Вы добавили сайт в закладки?
        Да
        Нет


        Top 10 за месяц (Мультфильмы)