.
Авторизация | Регистрация
Хочешь лучшие торренты? Добавь свой email!
Добавить

Торрент скачать бесплатно

  • support: webmaster@btracker.club
» » Распрекрасный принц / Charming (2018) BDRip [H.264 / 1080p] торрент скачать бесплатно


    Распрекрасный принц / Charming (2018) BDRip [H.264 / 1080p] торрент скачать бесплатно

    Опубликовал: fregat | Дата: 29-10-2018, 05:00 | .torrent скачали: 0

    Распрекрасный принц / Charming (2018) BDRip [H.264 / 1080p]Производство: США, Канада/3QU Media, Cinesite, Storyoscopic Films, Vanguard Animation, WV Enterprises
    Жанр: Мультфильм, Комедия, Семейный, Фэнтези, Мюзикл
    Режиссер: Росс Венокур

    Актеры
    Деми Ловато, Уилмер Вальдеррама, Сиа, Ниа Вардалос, Эшли Тисдейл, Аврил Лавин, Глория Тэнг, Джон Клиз, Ди Брэдли Бейкер, Карлос Аласраки

    Описание

    О прекрасном принце мечтает каждая, что уж говорить о Распрекрасном. Необычный дар юноша получил еще при рождении: девушки готовы на всё ради его улыбки, но плата за это — праведный гнев мужчин. Такое положение дел не может продолжаться вечно, а дар вот-вот обернется проклятьем. И теперь у Распрекрасного принца всего три дня, чтобы спасти Королевство от самого себя…

    Возраст: 6+ (зрителям, достигшим 6 лет)
    Дата мировой премьеры: 20 апреля 2018, ...
    Дата российской премьеры: 28 июня 2018, Вольга
    Цифровой релиз: 21 августа 2018, Вольга
    Продолжительность: 01: 25: 10
    Качество видео: BDRip
    Перевод: Дублированный (iTunes)
    Субтитры: Отсутствуют
    Видео: AVC/H.264, 1920x1036, ~10 Mbps
    Аудио #1: AC3, 6 ch, 384 Kbps, CBR - Русский
    Аудио #2: AC3, 6 ch, 384 Kbps, CBR - Украинский
    Аудио #3: DTS, 6 ch, 768 Kbps, CBR - Английский

    Unique ID : 234529214957127618490390231463488684609 (0xB070AF0CFD59860EB8D808AA4C148241)
    Complete name : D: TempCharming 1080p.mkv
    Format : Matroska
    Format version : Version 4/Version 2
    File size : 6.88 GiB
    Duration : 1h 25mn
    Overall bit rate : 11.5 Mbps
    Encoded date : UTC 2018-10-28 06: 54: 27
    Writing application : mkvmerge v9.8.0 ('Kuglblids') 64bit
    Writing library : Lavf57.71.100
    Video
    ID : 1
    Format : AVC
    Format/Info : Advanced Video Codec
    Format profile : High@L4.1
    Format settings, CABAC : Yes
    Format settings, ReFrames : 4 frames
    Codec ID : V_MPEG4/ISO/AVC
    Duration : 1h 25mn
    Bit rate : 10 000 Kbps
    Width : 1 920 pixels
    Height : 1 036 pixels
    Display aspect ratio : 1.85: 1
    Frame rate mode : Constant
    Frame rate : 23.976 fps
    Color space : YUV
    Chroma subsampling : 4: 2: 0
    Bit depth : 8 bits
    Scan type : Progressive
    Bits/(Pixel*Frame) : 0.210
    Stream size : 5.83 GiB (85%)
    Writing library : x264 core 157 r2901M 7d0ff22
    Encoding settings : cabac=1/ref=4/deblock=1: -3: -3/analyse=0x3: 0x113/me=umh/subme=10/psy=1/psy_rd=1.05: 0.10/mixed_ref=1/me_range=24/chroma_me=1/trellis=2/8x8dct=1/cqm=0/deadzone=21, 11/fast_pskip=0/chroma_qp_offset=-3/threads=5/lookahead_threads=1/sliced_threads=0/nr=0/decimate=1/interlaced=0/bluray_compat=0/constrained_intra=0/bframes=6/b_pyramid=2/b_adapt=2/b_bias=0/direct=1/weightb=1/open_gop=0/weightp=2/keyint=240/keyint_min=24/scenecut=40/intra_refresh=0/rc=2pass/mbtree=0/bitrate=10000/ratetol=1.0/qcomp=0.70/qpmin=3/qpmax=69/qpstep=4/cplxblur=20.0/qblur=0.5/ip_ratio=1.40/pb_ratio=1.30/aq=2: 1.00
    Default : Yes
    Forced : No
    Audio #1
    ID : 2
    Format : AC-3
    Format/Info : Audio Coding 3
    Mode extension : CM (complete main)
    Format settings, Endianness : Big
    Codec ID : A_AC3
    Duration : 1h 25mn
    Bit rate mode : Constant
    Bit rate : 384 Kbps
    Channel(s) : 6 channels
    Channel positions : Front: L C R, Side: L R, LFE
    Sampling rate : 48.0 KHz
    Bit depth : 16 bits
    Compression mode : Lossy
    Stream size : 235 MiB (3%)
    Language : Russian
    Default : Yes
    Forced : No
    Audio #2
    ID : 3
    Format : AC-3
    Format/Info : Audio Coding 3
    Mode extension : CM (complete main)
    Format settings, Endianness : Big
    Codec ID : A_AC3
    Duration : 1h 25mn
    Bit rate mode : Constant
    Bit rate : 384 Kbps
    Channel(s) : 6 channels
    Channel positions : Front: L C R, Side: L R, LFE
    Sampling rate : 48.0 KHz
    Bit depth : 16 bits
    Compression mode : Lossy
    Stream size : 235 MiB (3%)
    Language : Ukrainian
    Default : No
    Forced : No
    Audio #3
    ID : 4
    Format : DTS
    Format/Info : Digital Theater Systems
    Mode : 16
    Format settings, Endianness : Big
    Codec ID : A_DTS
    Duration : 1h 25mn
    Bit rate mode : Constant
    Bit rate : 768 Kbps
    Channel(s) : 6 channels
    Channel positions : Front: L C R, Side: L R, LFE
    Sampling rate : 48.0 KHz
    Bit depth : 16 bits
    Compression mode : Lossy
    Stream size : 469 MiB (7%)
    Language : English
    Default : No
    Forced : No


    Онлайн видео Распрекрасный принц



    Распрекрасный принц/Charming (2018) BDRip [H.264/1080p]
    Рейтинг →
     (голосов: 1, оценка 4/5, голосовать можно 1 раз )

    Другие торренты по теме:

  • Распрекрасный принц / Charming (2018) WEB-DL [1080p] ATV
  • Распрекрасный принц / Charming (2018) WEB-DLRip [H.264 / 1080p-LQ]
  • Распрекрасный принц / Charming (2018) WEB-DLRip
  • Распрекрасный принц / Charming (2018) BDRip [H.265 / 1080p-LQ] [10-bit]


    • Комментарии (0):

      Информация

      Информация

        Посетители, находящиеся в группе Гости, не могут оставлять комментарии в данной новости.

        ↓ Меню




        ↓ Опрос

        Вы добавили сайт в закладки?
        Да
        Нет


        Top 10 за месяц (Мультфильмы)