.
Авторизация | Регистрация
Хочешь лучшие торренты? Добавь свой email!
Добавить

Торрент скачать бесплатно

  • support: webmaster@btracker.club
» » Заколдованный мальчик (1955) DVDRip [H.264] торрент скачать бесплатно


    Заколдованный мальчик (1955) DVDRip [H.264] торрент скачать бесплатно

    Опубликовал: fregat | Дата: 29-10-2018, 05:00 | .torrent скачали: 0

    Заколдованный мальчик (1955) DVDRip [H.264]Производство: СССР/Союзмультфильм
    Жанр: Сказка, Приключения, Рисованная анимация, Детский
    Режиссер: Александра Снежко-Блоцкая, Владимир Полковников

    Описание

    Сказка повествует о непослушном мальчике Нильсе, заколдованном гномом. Став очень маленького роста и получив возможность понимать животных, мальчик отправляется в опасное путешествие вместе с домашним гусем Мартином на поиски гнома, чтобы развеять чары.

    Возраст: 6+ (зрителям, достигшим 6 лет)
    Дата мировой премьеры: 13 января 1956
    Релиз от: Nyc-2008
    Продолжительность: 00: 42: 51
    Качество видео: DVDRip H.264
    Субтитры: Отсутствуют
    Реклама: Отсутствует
    Видео: AVC/H.264, 704x558@750x558, ~2180 Kbps
    Аудио: AC3, 6 ch, 448 Kbps

    General
    Complete name : Заколдованный мальчик (1955).mkv
    Format : Matroska
    Format version : Version 4/Version 2
    File size : 822 MiB
    Duration : 42 min 51 s
    Overall bit rate : 2 681 kb/s
    Movie name : Zakoldovannyi Malchik.mkv by Nyc-2008
    Encoded date : UTC 2014-02-11 10: 03: 20
    Writing application : mkvmerge v6.7.0 ('Back to the Ground') 32bit built on Jan 8 2014 15: 03: 17
    Writing library : libebml v1.3.0 + libmatroska v1.4.1
    Cover : Yes
    Attachments : Cover.jpg
    Video
    ID : 1
    Format : AVC
    Format/Info : Advanced Video Codec
    Format profile : High@L4
    Format settings : CABAC/16 Ref Frames
    Format settings, CABAC : Yes
    Format settings, ReFrames : 16 frames
    Codec ID : V_MPEG4/ISO/AVC
    Duration : 42 min 51 s
    Bit rate : 2 180 kb/s
    Width : 704 pixels
    Height : 558 pixels
    Display aspect ratio : 4: 3
    Frame rate mode : Constant
    Frame rate : 25.000 FPS
    Color space : YUV
    Chroma subsampling : 4: 2: 0
    Bit depth : 8 bits
    Scan type : Progressive
    Bits/(Pixel*Frame) : 0.222
    Stream size : 668 MiB (81%)
    Writing library : x264 core 142 r2389kMod 956c8d8
    Encoding settings : cabac=1/ref=16/deblock=1: -1: -1/analyse=0x3: 0x113/me=umh/subme=10/psy=1/fade_compensate=0.00/psy_rd=1.00: 0.00/mixed_ref=1/me_range=24/chroma_me=1/trellis=2/8x8dct=1/cqm=0/deadzone=21, 11/fast_pskip=0/chroma_qp_offset=-2/threads=6/lookahead_threads=1/sliced_threads=0/nr=0/decimate=1/interlaced=0/bluray_compat=0/constrained_intra=0/fgo=0/bframes=15/b_pyramid=2/b_adapt=2/b_bias=0/direct=1/weightb=1/open_gop=0/weightp=2/keyint=250/keyint_min=25/scenecut=40/intra_refresh=0/rc=crf/mbtree=0/crf=18.0000/qcomp=0.60/qpmin=0/qpmax=69/qpstep=4/ip_ratio=1.40/pb_ratio=1.30/aq=1: 1.00
    Default : Yes
    Forced : No
    Audio
    ID : 2
    Format : AC-3
    Format/Info : Audio Coding 3
    Codec ID : A_AC3
    Duration : 42 min 51 s
    Bit rate mode : Constant
    Bit rate : 448 kb/s
    Channel(s) : 6 channels
    Channel positions : Front: L C R, Side: L R, LFE
    Sampling rate : 48.0 kHz
    Frame rate : 31.250 FPS (1536 SPF)
    Bit depth : 16 bits
    Compression mode : Lossy
    Stream size : 137 MiB (17%)
    Language : Russian
    Service kind : Complete Main
    Default : Yes
    Forced : No
    Menu
    00: 00: 00.000 : ru: Необычное происшествие с нильсом
    00: 09: 26.400 : ru: На льдине...
    00: 13: 10.200 : ru: Все дальше от дома
    00: 21: 36.000 : ru: Глимингенский замок
    00: 28: 24.600 : ru: Ночевка на крыше городской ратуши
    00: 36: 42.000 : ru: В обратный путь...


    Онлайн видео Старик Хоттабыч (1956) BDRip [H.265



    Заколдованный мальчик (1955) DVDRip [H.264]
    Рейтинг →
     (голосов: 1, оценка 3/5, голосовать можно 1 раз )

    Другие торренты по теме:

  • Заколдованный дом / La casa stregata (1982) DVDRip [H.264] [VO]
  • Мэри Стюарт | Заколдованный конь (2014) [MP3]
  • Заколдованный участок (2006) WEBRip [H.264] (серии 1-10 из 10)


    • Комментарии (0):

      Информация

      Информация

        Посетители, находящиеся в группе Гости, не могут оставлять комментарии в данной новости.

        ↓ Меню




        ↓ Опрос

        Вы добавили сайт в закладки?
        Да
        Нет


        Top 10 за месяц (Мультфильмы)