.
Авторизация | Регистрация
Хочешь лучшие торренты? Добавь свой email!
Добавить

Торрент скачать бесплатно

  • support: webmaster@btracker.club
» » Ushiro no Shoumen Dare | Whos Left Behind | Кто стоит за спиной [1991, MV] LDrip 360p raw торрент скачать бесплатно


    Ushiro no Shoumen Dare | Whos Left Behind | Кто стоит за спиной [1991, MV] LDrip 360p raw торрент скачать бесплатно

    Опубликовал: fregat | Дата: 28-10-2018, 05:00 | .torrent скачали: 0

    Ushiro no Shoumen Dare | Whos Left Behind | Кто стоит за спиной [1991, MV] LDrip 360p rawЖанр: драма, война, история
    Тип: полнометражный фильм
    Продолжительность: 92 минуты
    Премьера: 09.03.1991
    Студия: Mushi Productions
    Режиссер: Арихара Сэйдзи
    Автор оригинала: Эбина Каёко
    Ссылки: World-Art, Ani-DB, MAL

    Описание

    size=14
    В 1940 году Каёко пошла в первый класс начальной школы. Ей нравится играть с друзьями и петь песни на школьном дворе. Также она любит играть со своими старшими братьями, хотя они и считают её плаксой. Её мама ожидает ребёнка, поэтому она постепенно готовится стать старшей сестрой.
    А тем временем разгорается огонь войны и страну захлёстывает невиданная волна патриотизма. Все жители трудятся на благо армии. И Каёко тоже помогает собирать необходимые ресурсы для производства взрывчатки. Проходят годы, война всё больше и больше затрагивает её окружение, но ничто не могло её подготовить к 1945 году и тому, что последует за поражением страны в войне.
    Справка:
    В названии фильма используется заключительная фраза из популярной в Японии детской игры, заключающейся в следующем. Одному из игроков завязывают глаза, тогда как остальные образуют вокруг него хоровод и кружатся вокруг, напевая песенку:
    Kagome, Kagome, Kago no naka no tori wa, itsu itsu dearu, Yoake no bani, Tsu tu to kame to subeta, Ushiro no shoumen Dare?
    Игрок в центре по окончанию песни должен назвать имя того, кто в данный момент находится у него за спиной, и в случае точного угадывания тот занимает его место.
    Источник
    size=16Качество видео: LD-rip
    Видео: h.264, 640x360, ~23.976 fps, ~1, 1 Mbps
    Аудио: mp3, 2 ch, 48 kHz, 128 kbps |Звук: Японский
    Язык озвучки: Японский
    Субтитры: Русские, Английские
    Перевод: ARFox

    Скриншоты для ознакомления



    Код: выделить все
    General
    Unique ID : 253100843810104125555535621828158724768 (0xBE69730C29F21D0FB71D10A8D3449AA0)
    Complete name : Who's Left Behind[PPP-SUB] Who's Left Behind [640x360 x264 mp3].mkv
    Format : Matroska
    Format version : Version 2
    File size : 882 MiB
    Duration : 1h 32mn
    Overall bit rate : 1 331 Kbps
    Encoded date : UTC 2011-04-30 20:52:12
    Writing application : mkvmerge v4.7.0 ('Just Like You Imagined') built on Apr 21 2011 01:13:14
    Writing library : libebml v1.2.0 + libmatroska v1.1.0
    Attachment : Yes/Yes/Yes/Yes
    Video
    ID : 1
    Format : AVC
    Format/Info : Advanced Video Codec
    Format profile :High@L3.1
    Format settings, CABAC : Yes
    Format settings, ReFrames : 16 frames
    Muxing mode : Header stripping
    Codec ID : V_MPEG4/ISO/AVC
    Duration : 1h 32mn
    Bit rate : 1 200 Kbps
    Width : 640 pixels
    Height : 360 pixels
    Display aspect ratio : 16:9
    Frame rate mode : Constant
    Frame rate : 23.976 fps
    Color space : YUV
    Chroma subsampling : 4:2:0
    Bit depth : 8 bits
    Scan type : Progressive
    Bits/(Pixel*Frame) : 0.217
    Stream size : 780 MiB (88%)
    Writing library : x264 core 112 r1867bm 22bfd31
    Encoding settings : cabac=1/ref=16/deblock=1:1:1/analyse=0x3:0x133/me=umh/subme=10/psy=1/psy_rd=0.40:0.00/mixed_ref=1/me_range=24/chroma_me=1/trellis=2/8x8dct=1/cqm=0/deadzone=21, 11/fast_pskip=1/chroma_qp_offset=-2/threads=6/sliced_threads=0/nr=0/decimate=1/interlaced=0/constrained_intra=0/bframes=10/b_pyramid=2/b_adapt=2/b_bias=0/direct=3/weightb=1/open_gop=0/weightp=2/keyint=250/keyint_min=23/scenecut=40/intra_refresh=0/rc_lookahead=60/rc=2pass/mbtree=1/bitrate=1200/ratetol=1.0/qcomp=0.60/qpmin=0/qpmax=51/qpstep=4/cplxblur=20.0/qblur=0.5/ip_ratio=1.40/aq=1:0.60
    Language : Japanese
    Default : Yes
    Forced : No
    Audio
    ID : 2
    Format : MPEG Audio
    Format version : Version 1
    Format profile : Layer 3
    Mode : Joint stereo
    Mode extension : MS Stereo
    Muxing mode : Header stripping
    Codec ID : A_MPEG/L3
    Codec ID/Hint : MP3
    Duration : 1h 32mn
    Bit rate mode : Constant
    Bit rate : 128 Kbps
    Channel(s) : 2 channels
    Sampling rate : 48.0 KHz
    Compression mode : Lossy
    Stream size : 84.8 MiB (10%)
    Language : Japanese
    Default : Yes
    Forced : No
    Text
    ID : 3
    Format : ASS
    Codec ID : S_TEXT/ASS
    Codec ID/Info : Advanced Sub Station Alpha
    Compression mode : Lossless
    Language : English
    Default : Yes
    Forced : No
    Время раздачи: круглосуточно


    Онлайн видео Ushiro no Shoumen Dare



    Ushiro no Shoumen Dare | Whos Left Behind | Кто стоит за спиной [1991, MV] LDrip 360p raw
    Рейтинг →
     (голосов: 1, оценка 4/5, голосовать можно 1 раз )

    Другие торренты по теме:



      Комментарии (0):

      Информация

      Информация

        Посетители, находящиеся в группе Гости, не могут оставлять комментарии в данной новости.

        ↓ Меню




        ↓ Опрос

        Вы добавили сайт в закладки?
        Да
        Нет


        Top 10 за месяц (Мультфильмы)