.
Авторизация | Регистрация
Хочешь лучшие торренты? Добавь свой email!
Добавить

Торрент скачать бесплатно

  • support: webmaster@btracker.club
» » Иваника и Симоника (1976) TVRip торрент скачать бесплатно


    Иваника и Симоника (1976) TVRip торрент скачать бесплатно

    Опубликовал: fregat | Дата: 28-10-2018, 05:00 | .torrent скачали: 0

    Иваника и Симоника (1976) TVRipПроизводство: СССР/Грузия-фильм
    Жанр: Короткометражный, фэнтези, семейный
    Режиссер: Павле Чарквиани

    Актеры
    Гейдар Палавандишвили, Гия Перадзе, Л. Азарашвили, Кахи Кавсадзе, Елена Кипшидзе, Нодар Пиранишвили

    Описание

    Притча снята по мотивам грузинских сказок. Рассказывает она историю двух братьев, злого и доброго. Доброго брата звали Иваника, он был младшим, а злого звали Симоника и он был старшим братом. Когда Симоника делал что-то злое, то Иваника наоборот в ответ делал что-то доброе. Если же вначале проявлял добро Симоника, то Иваника отвечал на добрый посыл злом. Но настал момент, когда злобные козни старшего брата оказались направленными против него самого, а добрая душа Иваники не откликнулась и не заступилась за Симонику.

    Релиз от: Алехаndr
    Продолжительность: 00: 47: 29
    Качество видео: TVRip
    Субтитры: Отсутствуют
    Видео: Xvid, 640x480 (4: 3), ~1600 Kbps
    Аудио: MP3, 2 ch, 192 Kbps

    Общее
    Полное имя : D: Иваника и Симоника (1976).by.Алехаndr.avi
    Формат : AVI
    Формат/Информация : Audio Video Interleave
    Размер файла : 613 Мбайт
    Продолжительность : 47 м. 29 с.
    Общий поток : 1804 Кбит/сек
    Программа кодирования : Lavf58.12.100
    Видео
    Идентификатор : 0
    Формат : xvid
    Идентификатор кодека : xvid
    Продолжительность : 47 м. 29 с.
    Битрейт : 1599 Кбит/сек
    Ширина : 640 пикселей
    Высота : 480 пикселей
    Соотношение сторон : 4: 3
    Частота кадров : 25, 000 кадров/сек
    Тип развёртки : Прогрессивная
    Бит/(Пиксели*Кадры) : 0.208
    Размер потока : 543 Мбайт (89%)
    Аудио
    Идентификатор : 1
    Формат : MPEG Audio
    Версия формата : Version 1
    Профиль формата : Layer 3
    Настройки формата : Joint stereo/MS Stereo
    Идентификатор кодека : 55
    Идентификатор кодека/Подсказка : MP3
    Продолжительность : 47 м. 28 с.
    Вид битрейта : Постоянный
    Битрейт : 192 Кбит/сек
    Каналы : 2 канала
    Частота : 48, 0 КГц
    Метод сжатия : С потерями
    Размер потока : 65, 2 Мбайт (11%)
    Выравнивание : Соединение по промежуткам
    Продолжительность промежутка : 24 мс. (0, 60 видеокадр)
    Время предзагрузки промежутка : 24 мс.
    Библиотека кодирования : LAME3.99.5

    Скриншоты для ознакомления



    Все одноименные релизы в Клубе
    Время раздачи: 24/7 (круглосуточно) (до появления первых 3-5 скачавших)


    Онлайн видео Еспер Юуль



    Иваника и Симоника (1976) TVRip
    Рейтинг →
     (голосов: 1, оценка 3/5, голосовать можно 1 раз )

    Другие торренты по теме:



      Комментарии (0):

      Информация

      Информация

        Посетители, находящиеся в группе Гости, не могут оставлять комментарии в данной новости.

        ↓ Меню




        ↓ Опрос

        Вы добавили сайт в закладки?
        Да
        Нет


        Top 10 за месяц (Мультфильмы)