.
Авторизация | Регистрация
Хочешь лучшие торренты? Добавь свой email!
Добавить

Торрент скачать бесплатно

  • support: webmaster@btracker.club
» » Суперсемейка 2 / Incredibles 2 (2018) WEB-DLRip торрент скачать бесплатно


    Суперсемейка 2 / Incredibles 2 (2018) WEB-DLRip торрент скачать бесплатно

    Опубликовал: fregat | Дата: 27-10-2018, 05:00 | .torrent скачали: 0

    Суперсемейка 2 / Incredibles 2 (2018) WEB-DLRipПроизводство: США/Pixar Animation Studios, Walt Disney Pictures
    Жанр: Компьютерная анимация, Приключения, Комедия, Фентези
    Режиссер: Брэд Берд
    Персонажи: Крэйг Т. Нельсон, Холли Хантер, Сара Вауэлл, Хак Милнер, Кэтрин Кинер, Илай Фучиле, Боб Оденкёрк, Сэмюэл Л. Джексон, Майкл Бёрд, София Буш

    Описание

    После событий первой части суперсемейка пользуется повышенным вниманием со стороны журналистов. Неожиданно оказалось, что обаятельная Миссис Исключительная гораздо лучше смотрится на экране телевизора, чем её муж. Мистеру Исключительному все чаще приходится сидеть дома и приглядывать за детьми, у каждого из которых есть свои причины быть недовольным собственными суперспособностями. Однако семейным проблемам предстоит отступить на второй план, когда окажется, что спокойствию Суперсемейки угрожает новый могущественный враг.

    Возраст: 6+ (зрителям, достигшим 6 лет)
    Рейтинг MPAA: PG (рекомендуется присутствие родителей)
    Дата мировой премьеры: 5 июня 2018
    Дата российской премьеры: 14 июня 2018, WDSSPR
    Дата выхода DVD/Blu-ray релиза: 26 октября 2018, Уолт Дисней Компани СНГ
    Продолжительность: 01: 57: 49
    Качество видео: WEB-DLRip
    Перевод: Дублированный (iTunes )
    Субтитры: Русские (forced) - отдельным файлом
    Видео: Xvid, 720x304, ~1382 Kbps
    Аудио: AC3, 6 ch, 384 Kbps

    Общее
    Полное имя : C: UsersUserDownloadsIncredibles.2.2018.WEB-DLRipIncredibles.2.2018.WEB-DLRip.avi
    Формат : AVI
    Формат/Информация : Audio Video Interleave
    Размер файла : 1, 46 Гбайт
    Продолжительность : 1 ч. 57 м.
    Общий поток : 1775 Кбит/сек
    Программа кодирования : VirtualDubMod 1.5.10.3 |www.virtualdub-fr.org|| (build 2550/release)
    Библиотека кодирования : VirtualDubMod build 2550/release
    Видео
    Идентификатор : 0
    Формат : MPEG-4 Visual
    Профиль формата : Advanced Simple@L5
    Настройки формата : BVOP1/Custom Matrix
    Параметр BVOP формата : 1
    Параметр QPel формата : Нет
    Параметр GMC формата : Без точки перехода
    Параметр матрицы формата : Выборочная
    Идентификатор кодека : XVID
    Идентификатор кодека/Подсказка : XviD
    Продолжительность : 1 ч. 57 м.
    Битрейт : 1382 Кбит/сек
    Ширина : 720 пикселей
    Высота : 304 пикселя
    Соотношение сторон : 2, 35: 1
    Частота кадров : 23, 976 (24000/1001) кадра/сек
    Цветовое пространство : YUV
    Субдискретизация насыщенности : 4: 2: 0
    Битовая глубина : 8 бит
    Тип развёртки : Прогрессивная
    Метод сжатия : С потерями
    Бит/(Пиксели*Кадры) : 0.263
    Размер потока : 1, 14 Гбайт (78%)
    Библиотека кодирования : XviD 73
    Аудио
    Идентификатор : 1
    Формат : AC-3
    Формат/Информация : Audio Coding 3
    Коммерческое название : Dolby Digital
    Идентификатор кодека : 2000
    Продолжительность : 1 ч. 57 м.
    Вид битрейта : Постоянный
    Битрейт : 384 Кбит/сек
    Каналы : 6 каналов
    Channel layout : L R C LFE Ls Rs
    Частота : 48, 0 КГц
    Частота кадров : 31, 250 кадров/сек (1536 SPF)
    Битовая глубина : 16 бит
    Метод сжатия : С потерями
    Размер потока : 324 Мбайт (22%)
    Выравнивание : Разделение по промежуткам
    Продолжительность промежутка : 42 мс. (1, 00 видеокадр)
    Время предзагрузки промежутка : 500 мс.
    ServiceKind/String : Complete Main

    Скриншоты для ознакомления



    Все одноименные релизы в Клубе
    Время раздачи: 24/7 (до появления первых 3-5 скачавших)


    Онлайн видео Суперсемейка 2



    Суперсемейка 2/Incredibles 2 (2018) WEB-DLRip
    Рейтинг →
     (голосов: 1, оценка 5/5, голосовать можно 1 раз )

    Другие торренты по теме:

  • Суперсемейка / The Incredibles (2004) BDRip [H.264 / 1080p][handmade 16:9]
  • Суперсемейка / The Incredibles (2004) UHD BDRemux [H.265 / 2160p] [4K, HDR, 10-bit]
  • Суперсемейка / The Incredibles (2004) BDRip [H.265 / 1080p-LQ] [10-bit]
  • Michael Giacchino - Incredibles / Суперсемейка (Original Soundtrack) (2004-2018) [MP3|320 кб / с] <Soundtrack, Score>
  • Michael Giacchino - Incredibles / Суперсемейка (Original Soundtrack) (2004-2018) [FLAC|Lossless|tracks+.cue, tracks] <Soundtrack, Score>
  • Суперсемейка 2 / Incredibles 2 (2018) TS [AD]
  • Суперсемейка 2 / Incredibles 2 (2018) CamRip [AD]
  • Суперсемейка / The Incredibles (2004) BDRip [H.265 / 1080p-LQ] [10-bit]


    • Комментарии (0):

      Информация

      Информация

        Посетители, находящиеся в группе Гости, не могут оставлять комментарии в данной новости.

        ↓ Меню




        ↓ Опрос

        Вы добавили сайт в закладки?
        Да
        Нет


        Top 10 за месяц (Мультфильмы)