.
Авторизация | Регистрация
Хочешь лучшие торренты? Добавь свой email!
Добавить

Торрент скачать бесплатно

  • support: webmaster@btracker.club
» » Суперсемейка 2 / Incredibles 2 (2018) WEB-DLRip [H.264] торрент скачать бесплатно


    Суперсемейка 2 / Incredibles 2 (2018) WEB-DLRip [H.264] торрент скачать бесплатно

    Опубликовал: fregat | Дата: 27-10-2018, 05:00 | .torrent скачали: 0

    Суперсемейка 2 / Incredibles 2 (2018) WEB-DLRip [H.264]Производство: США/Pixar Animation Studios, Walt Disney Pictures
    Жанр: Компьютерная анимация, Приключения, Комедия
    Режиссер: Брэд Берд
    Персонажи: Крэйг Т. Нельсон, Холли Хантер, Сара Вауэлл, Хак Милнер, Кэтрин Кинер, Илай Фучиле, Боб Оденкёрк, Сэмюэл Л. Джексон, Майкл Бёрд, София Буш

    Описание

    После событий первой части суперсемейка пользуется повышенным вниманием со стороны журналистов. Неожиданно оказалось, что обаятельная Миссис Исключительная гораздо лучше смотрится на экране телевизора, чем её муж. Мистеру Исключительному все чаще приходится сидеть дома и приглядывать за детьми, у каждого из которых есть свои причины быть недовольным собственными суперспособностями. Однако семейным проблемам предстоит отступить на второй план, когда окажется, что спокойствию Суперсемейки угрожает новый могущественный враг.

    Возраст: 6+ (зрителям, достигшим 6 лет)
    Рейтинг MPAA: PG (рекомендуется присутствие родителей)
    Дата мировой премьеры: 5 июня 2018
    Дата российской премьеры: 14 июня 2018, WDSSPR
    Дата выхода DVD/Blu-ray релиза: 26 октября 2018, Уолт Дисней Компани СНГ
    Продолжительность: 01: 57: 49
    Качество видео: WEB-DLRip
    Перевод: Дублированный (iTunes )
    Субтитры: Русские (Forced, full, SDH), английские (SDH)
    Видео: AVC/H.264, 1024x428, ~1850 Kbps
    Аудио #1: AC3, 6 ch, 384 Kbps | русский
    Аудио #2: AC3, 6 ch, 384 Kbps | английский

    Общее
    Уникальный идентификатор : 196616415490183259673123862616047776703 (0x93EAF1B8140E6348BD23A35FCF3E73BF)
    Полное имя : C: UsersUserDownloadsIncredibles.2.2018.WEB-DLRip.AVC.mkv
    Формат : Matroska
    Версия формата : Version 2
    Размер файла : 2, 16 Гбайт
    Продолжительность : 1 ч. 57 м.
    Общий поток : 2620 Кбит/сек
    Название фильма : Incredibles 2 2018
    Дата кодирования : UTC 2018-10-26 00: 35: 56
    Программа кодирования : mkvmerge v5.6.0 ('Kenya Kane') built on May 27 2012 16: 44: 04
    Библиотека кодирования : libebml v1.2.3 + libmatroska v1.3.0
    Видео
    Идентификатор : 1
    Формат : AVC
    Формат/Информация : Advanced Video Codec
    Профиль формата : High@L4.1
    Настройки формата : CABAC/11 Ref Frames
    Параметр CABAC формата : Да
    Параметр RefFrames формата : 11 кадров
    Идентификатор кодека : V_MPEG4/ISO/AVC
    Продолжительность : 1 ч. 57 м.
    Битрейт : 1850 Кбит/сек
    Ширина : 1024 пикселя
    Высота : 428 пикселей
    Соотношение сторон : 2, 40: 1
    Режим частоты кадров : Постоянный
    Частота кадров : 23, 976 (23976/1000) кадра/сек
    Цветовое пространство : YUV
    Субдискретизация насыщенности : 4: 2: 0
    Битовая глубина : 8 бит
    Тип развёртки : Прогрессивная
    Бит/(Пиксели*Кадры) : 0.176
    Размер потока : 1, 48 Гбайт (69%)
    Заголовок : Enigma
    Библиотека кодирования : x264 core 152 r2851 ba24899
    Настройки программы : cabac=1/ref=11/deblock=1: -2: -2/analyse=0x3: 0x113/me=umh/subme=10/psy=1/psy_rd=1.05: 0.10/mixed_ref=1/me_range=32/chroma_me=1/trellis=2/8x8dct=1/cqm=0/deadzone=21, 11/fast_pskip=0/chroma_qp_offset=-3/threads=12/lookahead_threads=3/sliced_threads=0/nr=0/decimate=0/interlaced=0/bluray_compat=0/constrained_intra=0/bframes=10/b_pyramid=2/b_adapt=2/b_bias=0/direct=3/weightb=1/open_gop=0/weightp=2/keyint=240/keyint_min=23/scenecut=40/intra_refresh=0/rc=2pass/mbtree=0/bitrate=1850/ratetol=1.0/qcomp=0.60/qpmin=0/qpmax=51/qpstep=4/cplxblur=20.0/qblur=0.5/ip_ratio=1.40/pb_ratio=1.30/aq=1: 1.00
    Язык : English
    Default : Да
    Forced : Нет
    Цветовой диапазон : Limited
    Основные цвета : BT.709
    Характеристики трансфера : BT.709
    Коэффициенты матрицы : BT.709
    Аудио #1
    Идентификатор : 2
    Формат : AC-3
    Формат/Информация : Audio Coding 3
    Коммерческое название : Dolby Digital
    Идентификатор кодека : A_AC3
    Продолжительность : 1 ч. 57 м.
    Вид битрейта : Постоянный
    Битрейт : 384 Кбит/сек
    Каналы : 6 каналов
    Channel layout : L R C LFE Ls Rs
    Частота : 48, 0 КГц
    Частота кадров : 31, 250 кадров/сек (1536 SPF)
    Битовая глубина : 16 бит
    Метод сжатия : С потерями
    Размер потока : 324 Мбайт (15%)
    Заголовок : iTunes
    Язык : Russian
    ServiceKind/String : Complete Main
    Default : Да
    Forced : Да
    Аудио #2
    Идентификатор : 3
    Формат : AC-3
    Формат/Информация : Audio Coding 3
    Коммерческое название : Dolby Digital
    Идентификатор кодека : A_AC3
    Продолжительность : 1 ч. 57 м.
    Вид битрейта : Постоянный
    Битрейт : 384 Кбит/сек
    Каналы : 6 каналов
    Channel layout : L R C LFE Ls Rs
    Частота : 48, 0 КГц
    Частота кадров : 31, 250 кадров/сек (1536 SPF)
    Битовая глубина : 16 бит
    Метод сжатия : С потерями
    Размер потока : 324 Мбайт (15%)
    Заголовок : Original
    Язык : English
    ServiceKind/String : Complete Main
    Default : Нет
    Forced : Нет
    Текст #1
    Идентификатор : 4
    Формат : UTF-8
    Идентификатор кодека : S_TEXT/UTF8
    Идентификатор кодека/Информация : UTF-8 Plain Text
    Заголовок : Forced
    Язык : Russian
    Default : Да
    Forced : Да
    Текст #2
    Идентификатор : 5
    Формат : UTF-8
    Идентификатор кодека : S_TEXT/UTF8
    Идентификатор кодека/Информация : UTF-8 Plain Text
    Заголовок : Full
    Язык : Russian
    Default : Нет
    Forced : Нет
    Текст #3
    Идентификатор : 6
    Формат : UTF-8
    Идентификатор кодека : S_TEXT/UTF8
    Идентификатор кодека/Информация : UTF-8 Plain Text
    Заголовок : SDH
    Язык : Russian
    Default : Нет
    Forced : Нет
    Текст #4
    Идентификатор : 7
    Формат : UTF-8
    Идентификатор кодека : S_TEXT/UTF8
    Идентификатор кодека/Информация : UTF-8 Plain Text
    Заголовок : SDH
    Язык : English
    Default : Нет
    Forced : Нет
    Текст #5
    Идентификатор : 8
    Формат : UTF-8
    Идентификатор кодека : S_TEXT/UTF8
    Идентификатор кодека/Информация : UTF-8 Plain Text
    Заголовок : SDH Colored
    Язык : English
    Default : Нет
    Forced : Нет
    Меню
    00: 00: 00.000 : en: Tony Interrogation
    00: 03: 22.000 : en: Incredibles vs Underminer
    00: 08: 52.000 : en: Chewed Out
    00: 09: 36.000 : en: Family Dinner
    00: 13: 38.000 : en: Poolside
    00: 15: 44.000 : en: Deavor Meets Supers
    00: 21: 19.000 : en: Pillow Talk
    00: 23: 27.000 : en: New House
    00: 27: 08.000 : en: Where's Mom?
    00: 28: 59.000 : en: Runaway Train
    00: 35: 11.000 : en: Raccoon Fight
    00: 39: 07.000 : en: Helen Checks In
    00: 42: 44.000 : en: Tony Forgets
    00: 43: 41.000 : en: Air Rescue
    00: 47: 35.000 : en: Breakfast Blowup
    00: 48: 52.000 : en: Triumph Return
    00: 54: 15.000 : en: Vi Embarrassed
    00: 56: 16.000 : en: Tracking Screenslaver
    01: 00: 58.000 : en: Screenslaver Caught
    01: 02: 02.000 : en: Breaking Point
    01: 06: 55.000 : en: E The Babysitter
    01: 09: 18.000 : en: Helen Reviews Footage
    01: 11: 28.000 : en: Bob's Apology
    01: 12: 37.000 : en: Helen Slips Away
    01: 14: 39.000 : en: Auntie E
    01: 18: 00.000 : en: Cold Room
    01: 20: 32.000 : en: House Attack
    01: 25: 01.000 : en: Kids Alone
    01: 27: 59.000 : en: Super Signing
    01: 31: 54.000 : en: Kids To The Rescue
    01: 33: 26.000 : en: Trap Is Sprung
    01: 36: 24.000 : en: Battle Royale
    01: 37: 45.000 : en: Save The Day
    01: 43: 57.000 : en: Resolution
    01: 45: 36.000 : en: Epilogue
    01: 47: 30.000 : en: End Credits

    Скриншоты для ознакомления



    Все одноименные релизы в Клубе
    Время раздачи: 24/7 (до появления первых 3-5 скачавших)


    Онлайн видео Суперсемейка 2



    Суперсемейка 2/Incredibles 2 (2018) WEB-DLRip [H.264]
    Рейтинг →
     (голосов: 1, оценка 4/5, голосовать можно 1 раз )

    Другие торренты по теме:

  • Суперсемейка / The Incredibles (2004) BDRip [H.264 / 1080p][handmade 16:9]
  • Суперсемейка / The Incredibles (2004) UHD BDRemux [H.265 / 2160p] [4K, HDR, 10-bit]
  • Суперсемейка / The Incredibles (2004) BDRip [H.265 / 1080p-LQ] [10-bit]
  • Michael Giacchino - Incredibles / Суперсемейка (Original Soundtrack) (2004-2018) [MP3|320 кб / с] <Soundtrack, Score>
  • Michael Giacchino - Incredibles / Суперсемейка (Original Soundtrack) (2004-2018) [FLAC|Lossless|tracks+.cue, tracks] <Soundtrack, Score>
  • Суперсемейка 2 / Incredibles 2 (2018) TS [AD]
  • Суперсемейка 2 / Incredibles 2 (2018) CamRip [AD]
  • Суперсемейка / The Incredibles (2004) BDRip [H.265 / 1080p-LQ] [10-bit]


    • Комментарии (0):

      Информация

      Информация

        Посетители, находящиеся в группе Гости, не могут оставлять комментарии в данной новости.

        ↓ Меню




        ↓ Опрос

        Вы добавили сайт в закладки?
        Да
        Нет


        Top 10 за месяц (Мультфильмы)