.
Авторизация | Регистрация
Хочешь лучшие торренты? Добавь свой email!
Добавить

Торрент скачать бесплатно

  • support: webmaster@btracker.club
» » Незабываемый день (1978) TVRip торрент скачать бесплатно


    Незабываемый день (1978) TVRip торрент скачать бесплатно

    Опубликовал: fregat | Дата: 27-10-2018, 05:00 | .torrent скачали: 0

    Незабываемый день (1978) TVRipПроизводство: СССР/Грузия-фильм
    Жанр: Короткометражный, драма, детский
    Режиссер: Тенгиз Магалашвили

    Актеры
    Анна Нижарадзе, Хвича Джохаридзе, Гоча Джохаридзе, Мзия Арабули, К. Каландарашвили

    Описание

    В деревню приезжает городская девочка. Она знакомится с двумя мальчишками, родными братьями, которые целыми днями слоняются по местным окрестностям и пугают соседок волчьим воем.

    Релиз от: Алехаndr
    Продолжительность: 00: 26: 58
    Качество видео: TVRip
    Субтитры: Отсутствуют
    Видео: Xvid, 704x528 (4: 3), ~1800 Kbps
    Аудио: MP3, 2 ch, 128 Kbps

    Общее
    Полное имя : D: Незабываемый день (1978).by.Алехаndr.avi
    Формат : AVI
    Формат/Информация : Audio Video Interleave
    Размер файла : 374 Мбайт
    Продолжительность : 26 м. 58 с.
    Общий поток : 1939 Кбит/сек
    Программа кодирования : Lavf58.12.100
    Видео
    Идентификатор : 0
    Формат : xvid
    Идентификатор кодека : xvid
    Продолжительность : 26 м. 58 с.
    Битрейт : 1798 Кбит/сек
    Ширина : 704 пикселя
    Высота : 528 пикселей
    Соотношение сторон : 4: 3
    Частота кадров : 25, 000 кадров/сек
    Тип развёртки : Прогрессивная
    Бит/(Пиксели*Кадры) : 0.194
    Размер потока : 347 Мбайт (93%)
    Аудио
    Идентификатор : 1
    Формат : MPEG Audio
    Версия формата : Version 1
    Профиль формата : Layer 3
    Настройки формата : Joint stereo/MS Stereo
    Идентификатор кодека : 55
    Идентификатор кодека/Подсказка : MP3
    Продолжительность : 26 м. 58 с.
    Вид битрейта : Постоянный
    Битрейт : 128 Кбит/сек
    Каналы : 2 канала
    Частота : 48, 0 КГц
    Метод сжатия : С потерями
    Размер потока : 24, 7 Мбайт (7%)
    Выравнивание : Соединение по промежуткам
    Продолжительность промежутка : 24 мс. (0, 60 видеокадр)
    Время предзагрузки промежутка : 24 мс.

    Скриншоты для ознакомления



    Все одноименные релизы в Клубе
    Время раздачи: 24/7 (круглосуточно) (до появления первых 3-5 скачавших)


    Онлайн видео Книжная серия



    Незабываемый день (1978) TVRip
    Рейтинг →
     (голосов: 1, оценка 4/5, голосовать можно 1 раз )

    Другие торренты по теме:

  • Незабываемый / Unutulmaz (2009) TVRip (сезон 1, серии 1-80 из 90) Астана (обновляемая)
  • Незабываемый Сон: Динозавр и Я / Sojunghan Nal-ui Kkum (2011, MV) DVDRip 360p raw
  • VA - Летний марафон № 173 / Видеоклипы (Незабываемый Country Хит) (2014-2015) WEBRip [H.264 / 1080p-LQ] скачать через торрент бесплатно
  • Незабываемый роман / An Affair to Remember (1957) BDRip [H.264]
  • Незабываемый роман / An Affair to Remember (1957) BDRip [H.265 / 1080p-LQ]


    • Комментарии (0):

      Информация

      Информация

        Посетители, находящиеся в группе Гости, не могут оставлять комментарии в данной новости.

        ↓ Меню




        ↓ Опрос

        Вы добавили сайт в закладки?
        Да
        Нет


        Top 10 за месяц (Мультфильмы)