.
Авторизация | Регистрация
Хочешь лучшие торренты? Добавь свой email!
Добавить

Торрент скачать бесплатно

  • support: webmaster@btracker.club
» » Зак Шторм / Zak Storm (2017) SATRip (Сезон 1, Серий 15 из 26) [Обновляемая] торрент скачать бесплатно


    Зак Шторм / Zak Storm (2017) SATRip (Сезон 1, Серий 15 из 26) [Обновляемая] торрент скачать бесплатно

    Опубликовал: fregat | Дата: 19-09-2018, 05:00 | .torrent скачали: 54

    Зак Шторм / Zak Storm (2017) SATRip (Сезон 1, Серий 15 из 26) [Обновляемая]Производство: США, Франция, Южная Корея, Индонезия
    Жанр: Детский, Приключения
    Режиссер: Филипп Гуинне

    Описание

    Мультсериал об удивительных приключениях юного подростка-серфера Зака, очень упрямого и предприимчивого парня, который попал в Бермудский треугольник, пытаясь выиграть соревнования по серфингу. Оказавшись в магическом месте, что хранит множество тайн, Зак завладел мечом, трансформировал его в героя, способного противостоять любым атакам и препятствовать любой опасности, что появляется в пространстве Семи морей, внутри Бермудского треугольника. Зак берет на себя руководство экипажем судна. Вместе с командой, состоящей из болтливого меч первого помощника принцессы Атлантин, тугодума Викинга с тяжелым кулаком, нервного космического путешественника и маленького весельчака-полтергейста, юный серфер отправляется на поиски приключений, сразится с злодеем Скалливаром и постарается выбраться из Бермудского треугольника. Но сможет ли он вернуться домой?

    Возраст: 0+ (для любой зрительской аудитории)
    Рейтинг MPAA: G (нет возрастных ограничений)
    Дата мировой премьеры: 14 октября 2017
    Дата российской премьеры: 3 сентября 2018
    Продолжительность: ~00: 22: 19 серия
    Качество видео: SATRip
    Перевод: Полный дубляж, вкл. песни
    Субтитры: отсутствуют
    Видео: Xvid, 704x400, ~1 200 kb/s
    Аудио: MP3, 2 ch, 192 kb/s

    General
    Complete name : D: MultikiУзнавайкаЗак Шторм Истоки часть1.avi
    Format : AVI
    Format/Info : Audio Video Interleave
    File size : 223 MiB
    Duration : 22 min 19 s
    Overall bit rate : 1 399 kb/s
    Writing library : VirtualDub build 40463/release
    Video
    ID : 0
    Format : MPEG-4 Visual
    Format profile : Advanced Simple@L5
    Format settings : BVOP2
    Format settings, BVOP : 2
    Format settings, QPel : No
    Format settings, GMC : No warppoints
    Format settings, Matrix : Default (H.263)
    Muxing mode : Packed bitstream
    Codec ID : XVID
    Codec ID/Hint : XviD
    Duration : 22 min 19 s
    Bit rate : 1 198 kb/s
    Width : 704 pixels
    Height : 400 pixels
    Display aspect ratio : 16: 9
    Frame rate : 25.000 FPS
    Color space : YUV
    Chroma subsampling : 4: 2: 0
    Bit depth : 8 bits
    Scan type : Progressive
    Compression mode : Lossy
    Bits/(Pixel*Frame) : 0.170
    Stream size : 191 MiB (86%)
    Writing library : XviD 67
    Audio
    ID : 1
    Format : MPEG Audio
    Format version : Version 1
    Format profile : Layer 3
    Format settings : Joint stereo
    Codec ID : 55
    Codec ID/Hint : MP3
    Duration : 22 min 19 s
    Bit rate mode : Constant
    Bit rate : 192 kb/s
    Channel(s) : 2 channels
    Sampling rate : 48.0 kHz
    Compression mode : Lossy
    Stream size : 30.7 MiB (14%)
    Alignment : Split accross interleaves
    Interleave, duration : 40 ms (1.00 video frame)
    Interleave, preload duratio : 500 ms


    Онлайн видео Зак Шторм



    Зак Шторм/Zak Storm (2017) SATRip (Сезон 1, Серий 15 из 26) [Обновляемая]
    Рейтинг →
     (голосов: 1, оценка 5/5, голосовать можно 1 раз )

    Другие торренты по теме:

  • Шторм Z / Z Storm (2014) HDRip
  • Гаро. Золотой шторм. Начало / Garo: Gold Storm (2015) HDRip скачать через торрент бесплатно
  • Lost Island: Eternal Storm / Затерянный остров: Вечный шторм (2015) [Ru] Unofficial скачать через торрент бесплатно
  • Шторм века / Storm of the Century (1998) TVRip
  • Идеальный шторм / The Perfect Storm (2000) BDRip [H.264 / 720р]
  • Зак Шторм / Zak Storm (2017) SATRip [H.264] (Сезон 1, 26 серий из 26) [UKR]


    • Комментарии (0):

      Информация

      Информация

        Посетители, находящиеся в группе Гости, не могут оставлять комментарии в данной новости.

        ↓ Меню




        ↓ Опрос

        Вы добавили сайт в закладки?
        Да
        Нет


        Top 10 за месяц (Мультфильмы)

        Зак Шторм / Zak Storm (2017) SATRip (Сезон 1, Серий 15 из 26) [Обновляемая]

        (скачиваний: 222)
        Расти-механик / Rusty Rivets (2016) WEB-DL [H.264] (Серии 1-23)

        (скачиваний: 45)
        Зак Шторм / Zak Storm (2017) SATRip [H.264] (Сезон 1, 26 серий из 26) [UKR]

        (скачиваний: 34)
        Бобр Добр (2018) WEB-DLRip [H.264 / 720p-LQ] (серии 1-15) [Обновляемая]

        (скачиваний: 24)
        Анна Быкова | Самостоятельный ребенок, или Как стать «ленивой мамой» (2016) [FB2]

        (скачиваний: 23)
        В.Н. Мещерякова | I can speak | Я умею говорить по-английски. Книга для учителя (2013) [PDF]

        (скачиваний: 23)
        К.М. Баранова и др. | Английский язык. Лексический практикум. 11 класс. Starlight 11 Vocabulary Practice. (2013) [PDF, JPG] скачать через торрент бесплатно

        (скачиваний: 19)
        Дмитрий Тарасов | Электронная тетрадь по Информатике 5 класс + решебник (2014) [unpacked, docx] скачать через торрент бесплатно

        (скачиваний: 19)
        Ю.Е. Ваулина и др. | Питер Пэн. Книга для чтения. 7 класс. Peter Pan. A reader for Spotlight 7. (2014) [PDF] скачать через торрент бесплатно

        (скачиваний: 19)
        Королевская академия / Regal Academy (2016) SATRip [H.264] (Сезон 1, 26 серий из 26) [UKR]

        (скачиваний: 15)