.
Авторизация | Регистрация
Хочешь лучшие торренты? Добавь свой email!
Добавить

Торрент скачать бесплатно

  • support: webmaster@btracker.club
» » Бобр Добр (2018) WEB-DLRip [H.264 / 720p-LQ] (серии 1-15) [Обновляемая] торрент скачать бесплатно


    Бобр Добр (2018) WEB-DLRip [H.264 / 720p-LQ] (серии 1-15) [Обновляемая] торрент скачать бесплатно

    Опубликовал: fregat | Дата: 13-09-2018, 05:00 | .torrent скачали: 58

    Бобр Добр (2018) WEB-DLRip [H.264 / 720p-LQ] (серии 1-15) [Обновляемая]Год выпуска: 2018
    Жанр: Детский, Компьютерная анимация
    Производство: Россия/Анимационная студия 100 киловатт
    Режиссер: Алексей Подколзин
    Персонажи: Бобр, Лягушонок, Барсук, Сова, Дятел, братья Зайкины, Комары

    Описание

    БОБР ДОБР - красочный остроумный сериал, искромётная комедия с яркими запоминающимися персонажами. В основе историй - простые истины о том, что такое хорошо и что такое плохо. .
    Трудиться, помогать другим, быть добрым и отзывчивым – хорошо. Лениться, мешать другим, быть вредным и равнодушным – плохо.
    Основной посыл сериала: любую беду можно пережить всем вместе, любую проблему разрешить добрым словом, поддержкой или просто улыбкой. А друзья – те, на кого всегда можно положиться, даже если ты не прав.

    Возраст: 0+ (для любой зрительской аудитории)
    Рейтинг MPAA: G (нет возрастных ограничений)
    Релиз от: Natasha77
    Продолжительность: ~ 00: 06: 00 серия
    Качество видео: WEB-DLRip
    Перевод: Не требуется (Русский)
    Субтитры: Отсутствуют
    Видео: AVC/H.264, 1280x720, ~1500 kbps
    Аудио: Русский: AAC, 2 ch, 128 kbps
    Код: выделить все
    General
    Unique ID : 164031420394041183685167258353232407946 (0x7B674D6C6D7E2EB8567CC051EE166D8A)
    Complete name : C:8_День рождения.mkv
    Format : Matroska
    Format version : Version 4/Version 2
    File size : 76.0 MiB
    Duration : 5 min 51 s
    Overall bit rate : 1 812 kb/s
    Encoded date : UTC 2018-09-12 12:04:19
    Writing application : mkvmerge v26.0.0 ('In The Game') 32-bit
    Writing library : libebml v1.3.6 + libmatroska v1.4.9
    Video
    ID : 1
    Format : AVC
    Format/Info : Advanced Video Codec
    Format profile :Main@L3.1
    Format settings : CABAC/3 Ref Frames
    Format settings, CABAC : Yes
    Format settings, ReFrames : 3 frames
    Codec ID : V_MPEG4/ISO/AVC
    Duration : 5 min 51 s
    Bit rate : 1 684 kb/s
    Width : 1 280 pixels
    Height : 720 pixels
    Display aspect ratio : 16:9
    Frame rate mode : Constant
    Frame rate : 25.000 FPS
    Color space : YUV
    Chroma subsampling : 4:2:0
    Bit depth : 8 bits
    Scan type : Progressive
    Bits/(Pixel*Frame) : 0.073
    Stream size : 70.6 MiB (93%)
    Default : Yes
    Forced : No
    Color range : Limited
    Color primaries : BT.709
    Transfer characteristics : BT.709
    Matrix coefficients : BT.709
    Audio
    ID : 2
    Format : AAC LC
    Format/Info : Advanced Audio Codec Low Complexity
    Codec ID : A_AAC-2
    Duration : 5 min 51 s
    Bit rate : 128 kb/s
    Channel(s) : 2 channels
    Channel layout : L R
    Sampling rate : 44.1 kHz
    Frame rate : 43.066 FPS (1024 SPF)
    Compression mode : Lossy
    Stream size : 5.27 MiB (7%)
    Language : English
    Default : Yes
    Forced : No


    Бобр
    Главный положительный герой. Открытый, дружелюбный, трудолюбивый. Всегда в отличном настроении.

    Барсук
    Главный источник всех беспокойств. Озорник. Из-за своего характера постоянно попадает в смешные и даже безвыходные ситуации. Антипод Бобра.

    Сова
    Интернет-зависимая, писательница, модница, обожает какао и сладости, страдает бессонницей, любит порядок и никогда не участвует в проделках.

    Братья Зайкины
    Паркурщики и любители громкой музыки. Всегда в наушниках. Зайцы помогают Барсуку в его проделках, и эта помощь, конечно, оборачивается беспорядком.

    Лягушонок
    Друг и помощник Бобра. Веселый и храбрый. Помогает Бобру решать проблемы.

    Дятел
    Будит весь лес по утрам вместо будильника. Любит стучать по дереву, на котором живет Сова. Потому что к ней неравнодушен.

    Комары
    Назойливые и пискливые. Досаждают Сове по ночам, так как все время летят на свет ее монитора.


    Онлайн видео Бобр Добр (2018) WEB-DLRip [H.264



    Бобр Добр (2018) WEB-DLRip [H.264/720p-LQ] (серии 1-15) [Обновляемая]
    Рейтинг →
     (голосов: 1, оценка 3/5, голосовать можно 1 раз )

    Другие торренты по теме:



      Комментарии (0):

      Информация

      Информация

        Посетители, находящиеся в группе Гости, не могут оставлять комментарии в данной новости.

        ↓ Меню




        ↓ Опрос

        Вы добавили сайт в закладки?
        Да
        Нет


        Top 10 за месяц (Мультфильмы)