.
Авторизация | Регистрация
Хочешь лучшие торренты? Добавь свой email!
Добавить

Торрент скачать бесплатно

  • support: webmaster@btracker.club
» » Маша и Медведь. Серия 73: Случай на рыбалке (2018) WEB-DLRip [H.264 / 1080p-LQ] торрент скачать бесплатно


    Маша и Медведь. Серия 73: Случай на рыбалке (2018) WEB-DLRip [H.264 / 1080p-LQ] торрент скачать бесплатно

    Опубликовал: fregat | Дата: 3-09-2018, 05:00 | .torrent скачали: 0

    Маша и Медведь. Серия 73: Случай на рыбалке (2018) WEB-DLRip [H.264 / 1080p-LQ]Производство: Россия/Студия Анимаккорд
    Жанр: Детский, комедия, семейный
    Режиссер: Олег Кузовков, Олег Ужинов, Денис Червяцов
    Персонажи: Алина Кукушкина, Эдуард Назаров, Борис Кутневич

    Описание

    Лето - время отдыха и чудес. Как приятно просто посидеть на берегу реки в компании лучших друзей! Однако в нашей истории всё не так просто, ведь отправляясь на летнюю рыбалку, Мишка даже не подозревал, какое приключение его ждёт. Пока напуганные его внезапным исчезновением Маша и Медведица обследуют окрестности, он... впрочем, посмотрев серию, вы сами всё узнаете.

    Возраст: 0+ (для любой зрительской аудитории)
    Релиз от: Natasha77
    Продолжительность: 00: 07: 20
    Качество видео: WEB-DLRip
    Субтитры: Отсутствуют
    Видео: AVC/H.264, 1920x1080 (16: 9), 5120 Kbps
    Аудио: AAC, 2 ch, 512 Kbps

    Общее
    Уникальный идентификатор : 40994692939474098098381924852989615521 (0x1ED74A694DC9769071DC9912B8DEDDA1)
    Полное имя : C: Маша и Медведь. 73 серия - Случай на рыбалке.mkv
    Формат : Matroska
    Версия формата : Version 4/Version 2
    Размер файла : 295 Мбайт
    Продолжительность : 7 м. 20 с.
    Общий поток : 5627 Кбит/сек
    Дата кодирования : UTC 2018-09-01 19: 25: 30
    Программа кодирования : mkvmerge v26.0.0 ('In The Game') 32-bit
    Библиотека кодирования : libebml v1.3.6 + libmatroska v1.4.9
    Видео
    Идентификатор : 1
    Формат : AVC
    Формат/Информация : Advanced Video Codec
    Профиль формата : High@L4
    Настройки формата : CABAC/4 Ref Frames
    Параметр CABAC формата : Да
    Параметр RefFrames формата : 4 кадра
    Идентификатор кодека : V_MPEG4/ISO/AVC
    Продолжительность : 7 м. 20 с.
    Битрейт : 5120 Кбит/сек
    Ширина : 1920 пикселей
    Высота : 1080 пикселей
    Соотношение сторон : 16: 9
    Режим частоты кадров : Постоянный
    Частота кадров : 25, 000 кадров/сек
    Цветовое пространство : YUV
    Субдискретизация насыщенности : 4: 2: 0
    Битовая глубина : 8 бит
    Тип развёртки : Прогрессивная
    Бит/(Пиксели*Кадры) : 0.099
    Размер потока : 268 Мбайт (91%)
    Библиотека кодирования : x264 core 142
    Default : Да
    Forced : Нет
    Аудио
    Идентификатор : 2
    Формат : AAC
    Формат/Информация : Advanced Audio Codec
    Профиль формата : LC
    Идентификатор кодека : A_AAC-2
    Продолжительность : 7 м. 20 с.
    Битрейт : 512 Кбит/сек
    Каналы : 2 канала
    Расположение каналов : Front: L R
    Частота : 48, 0 КГц
    Частота кадров : 46, 875 кадров/сек (1024 SPF)
    Метод сжатия : С потерями
    Размер потока : 26, 9 Мбайт (9%)
    Язык : Russian
    Default : Да
    Forced : Нет

    Скриншоты для ознакомления



    Маша и медведь на NoNaMe Club


    Онлайн видео Маша и Медведь. Серия 73: Случай на рыбалке (2018) WEB-DLRip [H.264



    Маша и Медведь. Серия 73: Случай на рыбалке (2018) WEB-DLRip [H.264/1080p-LQ]
    Рейтинг →
     (голосов: 1, оценка 4/5, голосовать можно 1 раз )

    Другие торренты по теме:

  • Маша и Медведь: Пещерный медведь (2015) WEBRip (Серия 48)
  • Маша и Медведь: Пещерный медведь (2015) WEB-DL [H.264 / 1080p-LQ] (Серия 48) скачать через торрент бесплатно
  • Маша и Медведь: Пещерный медведь (2015) WEB-DL (Серия 48) [H.264 / 720p-LQ]
  • Маша и медведь (2009-2014) BDRip [1080p] (1-45 серии) [Обновляемый]
  • Маша и медведь (1-45 серии) (2009-2014) [1080p] BDRemux [Обновляемый]
  • Маша и Медведь (1-45 серии) (2009-2014) [H.264] BDRip [Обновляемая]
  • Маша и Медведь (2009-2013) DVDRip / HDRip (1-45 серии) + Машины сказки (2011-2013) DVDRip (1-26 серии) [Оновляемая]
  • Маша и Медведь: Запутанная история (2014) BDRemux [1080p] (Серия 45)


    • Комментарии (0):

      Информация

      Информация

        Посетители, находящиеся в группе Гости, не могут оставлять комментарии в данной новости.

        ↓ Меню




        ↓ Опрос

        Вы добавили сайт в закладки?
        Да
        Нет


        Top 10 за месяц (Мультфильмы)

        Зак Шторм / Zak Storm (2017) SATRip [H.264] (Сезон 1, 26 серий из 26) [UKR]

        (скачиваний: 270)
        Маша и Медведь. Серия 73: Случай на рыбалке (2018) WEB-DLRip [H.264 / 1080p-LQ]

        (скачиваний: 54)
        В.Н. Мещерякова | I can speak | Я умею говорить по-английски. Книга для учителя (2013) [PDF]

        (скачиваний: 25)
        Кит Stupid show (2014-2018) WEBRip [H.264 / 720p-LQ] (Сезон: 1-8, Серии: 1-100 из )(Обновляемая)

        (скачиваний: 13)
        Канакина В. П., Горецкий В. Г. Электронное приложение к учебнику «Русский язык», 2 класс (2012) [ISO] скачать через торрент бесплатно

        (скачиваний: 13)
        О.В. Волобуев и др. | История. Всеобщая история. 10 класс. Базовый и углублённый уровни (2013) [FB2] скачать через торрент бесплатно

        (скачиваний: 10)
        Гого: приключение с английским / GOGOs Adventures with English (1995) WEBRip (Сезон 1, серий 39 из 39) [EN] скачать через торрент бесплатно

        (скачиваний: 10)
        Колосок (1982) DVDRip

        (скачиваний: 10)
        Карен Бенке | Пиши ещё! Руководство для начинающего писателя (2016) [FB2]

        (скачиваний: 9)
        Мини-Маппеты / Muppet Babies (2018) SATRip (Сезон 1, серий 4 из 14) [Обновляемая]

        (скачиваний: 9)