.
Авторизация | Регистрация
Хочешь лучшие торренты? Добавь свой email!
Добавить

Торрент скачать бесплатно

  • support: webmaster@btracker.club
» » Добытчица / The Breadwinner (2017) WEB-DL [H.264 / 1080p-LQ] [EN / RU Sub] торрент скачать бесплатно


    Добытчица / The Breadwinner (2017) WEB-DL [H.264 / 1080p-LQ] [EN / RU Sub] торрент скачать бесплатно

    Опубликовал: fregat | Дата: 17-07-2018, 05:00 | .torrent скачали: 0

    Добытчица / The Breadwinner (2017) WEB-DL [H.264 / 1080p-LQ] [EN / RU Sub]Производство: Ирландия, Канада, Люксембург/Cartoon Saloon
    Жанр: Рисованная анимация, Приключения
    Режиссер: Нора Туми

    Описание

    После ареста главы семейства в афганской семье остались только женщины, не считая годовалого мальчика. Поскольку в этой стране женщина не имеет права находиться на улице без сопровождения мужа или отца, юная Парвана остригает волосы и переодевается мальчиком, чтобы не дать семье умереть с голоду.

    Возраст: 12+ (зрителям, достигшим 12 лет)
    Рейтинг MPAA: PG-13 (детям до 13 лет просмотр нежелателен)
    Дата мировой премьеры: 08.09.2017
    Дата российской премьеры: 17.03.2018
    Продолжительность: 01: 33: 25
    Качество видео: WEB-DL 1080p-LQ
    Перевод: Отсутствует
    Язык: Английский
    Субтитры: Русские (отдельным файлом)
    Видео: AVC/H.264, 1916х796, ~4426 Кбит/сек
    Аудио: AC3, 6 ch, 384 Кбит/сек

    Общее
    Уникальный идентификатор : 218944913209681195755960179645910960292 (0xA4B741A6D9999275A46EEEA52BE148A4)
    Полное имя : D: The Breadwinner.2017.1080p.WEB-DL.H264.AC3-EVOEtHDThe Breadwinner.2017.1080p.WEB-DL.H264.AC3-EVOEtHD.mkv
    Формат : Matroska
    Версия формата : Version 4/Version 2
    Размер файла : 3, 20 Гбайт
    Продолжительность : 1 ч. 33 м.
    Общий поток : 4907 Кбит/сек
    Название фильма : EVO
    Дата кодирования : UTC 2018-02-20 13: 56: 26
    Программа кодирования : mkvmerge v6.7.0 ('Back to the Ground') 64bit built on Jan 8 2014 15: 10: 52
    Библиотека кодирования : libebml v1.3.0 + libmatroska v1.4.1
    Видео
    Идентификатор : 2
    Формат : AVC
    Формат/Информация : Advanced Video Codec
    Профиль формата : High@L4
    Настройки формата : CABAC/5 Ref Frames
    Параметр CABAC формата : Да
    Параметр RefFrames формата : 5 кадров
    Идентификатор кодека : V_MPEG4/ISO/AVC
    Продолжительность : 1 ч. 33 м.
    Битрейт : 4426 Кбит/сек
    Ширина : 1916 пикселей
    Высота : 796 пикселей
    Соотношение сторон : 2, 40: 1
    Режим частоты кадров : Постоянный
    Частота кадров : 23, 976 кадра/сек
    Цветовое пространство : YUV
    Субдискретизация насыщенности : 4: 2: 0
    Битовая глубина : 8 бит
    Тип развёртки : Прогрессивная
    Бит/(Пиксели*Кадры) : 0.121
    Размер потока : 2, 89 Гбайт (90%)
    Язык : English
    Default : Да
    Forced : Нет
    Цветовой диапазон : Limited
    Основные цвета : BT.709
    Характеристики трансфера : BT.709
    Коэффициенты матрицы : BT.709
    Аудио
    Идентификатор : 1
    Формат : AC-3
    Формат/Информация : Audio Coding 3
    Идентификатор кодека : A_AC3
    Продолжительность : 1 ч. 33 м.
    Вид битрейта : Постоянный
    Битрейт : 384 Кбит/сек
    Каналы : 6 каналов
    Расположение каналов : Front: L C R, Side: L R, LFE
    Частота : 48, 0 КГц
    Частота кадров : 31, 250 кадров/сек (1536 SPF)
    Битовая глубина : 16 бит
    Метод сжатия : С потерями
    Размер потока : 257 Мбайт (8%)
    Язык : English
    ServiceKind/String : Complete Main
    Default : Да
    Forced : Нет
    Меню
    00: 00: 00.000 : en: 1
    00: 05: 33.875 : en: 2
    00: 11: 00.076 : en: 3
    00: 15: 44.026 : en: 4
    00: 20: 49.538 : en: 5
    00: 25: 10.966 : en: 6
    00: 30: 51.680 : en: 7
    00: 35: 17.737 : en: 8
    00: 40: 07.193 : en: 9
    00: 45: 14.959 : en: 10
    00: 50: 08.752 : en: 11
    00: 55: 12.096 : en: 12
    01: 00: 17.650 : en: 13
    01: 06: 07.291 : en: 14
    01: 10: 09.324 : en: 15
    01: 15: 29.643 : en: 16
    01: 20: 17.764 : en: 17
    01: 25: 55.142 : en: 18

    Скриншоты для ознакомления



    Все одноименные релизы в Клубе
    Время раздачи: 24/7 (круглосуточно) (до появления первых 3-5 скачавших)


    Онлайн видео Добытчица



    Добытчица/The Breadwinner (2017) WEB-DL [H.264/1080p-LQ] [EN/RU Sub]
    Рейтинг →
     (голосов: 1, оценка 5/5, голосовать можно 1 раз )

    Другие торренты по теме:



      Комментарии (0):

      Информация

      Информация

        Посетители, находящиеся в группе Гости, не могут оставлять комментарии в данной новости.

        ↓ Меню




        ↓ Опрос

        Вы добавили сайт в закладки?
        Да
        Нет


        Top 10 за месяц (Мультфильмы)

        Зак Шторм / Zak Storm (2017) SATRip (Сезон 1, Серий 15 из 26) [Обновляемая]

        (скачиваний: 214)
        Расти-механик / Rusty Rivets (2016) WEB-DL [H.264] (Серии 1-23)

        (скачиваний: 45)
        Зак Шторм / Zak Storm (2017) SATRip [H.264] (Сезон 1, 26 серий из 26) [UKR]

        (скачиваний: 34)
        Бобр Добр (2018) WEB-DLRip [H.264 / 720p-LQ] (серии 1-15) [Обновляемая]

        (скачиваний: 24)
        Анна Быкова | Самостоятельный ребенок, или Как стать «ленивой мамой» (2016) [FB2]

        (скачиваний: 23)
        В.Н. Мещерякова | I can speak | Я умею говорить по-английски. Книга для учителя (2013) [PDF]

        (скачиваний: 23)
        К.М. Баранова и др. | Английский язык. Лексический практикум. 11 класс. Starlight 11 Vocabulary Practice. (2013) [PDF, JPG] скачать через торрент бесплатно

        (скачиваний: 19)
        Ю.Е. Ваулина и др. | Питер Пэн. Книга для чтения. 7 класс. Peter Pan. A reader for Spotlight 7. (2014) [PDF] скачать через торрент бесплатно

        (скачиваний: 19)
        Дмитрий Тарасов | Электронная тетрадь по Информатике 5 класс + решебник (2014) [unpacked, docx] скачать через торрент бесплатно

        (скачиваний: 16)
        Королевская академия / Regal Academy (2016) SATRip [H.264] (Сезон 1, 26 серий из 26) [UKR]

        (скачиваний: 15)