.
Авторизация | Регистрация

Торрент скачать бесплатно

  • support: webmaster@btracker.club
» » МУЛЬТ и МУЗЫКА (2017) WEB-DLRip [H.264 / 720p-LQ] (серии 1-20) торрент скачать бесплатно


    МУЛЬТ и МУЗЫКА (2017) WEB-DLRip [H.264 / 720p-LQ] (серии 1-20) торрент скачать бесплатно

    Дата: 25-12-2017, 05:00 | .torrent скачали: 220

    МУЛЬТ и МУЗЫКА (2017) WEB-DLRip [H.264 / 720p-LQ] (серии 1-20)Жанр: Анимационный сериал
    Производство: Россия (МУЛЬТ и МУЗЫКА)

    Описание

    Музыка из популярных мультфильмов и анимационных сериалов телеканала МУЛЬТ.
    Возраст: 0+ (для любой зрительской аудитории)
    Рейтинг MPAA: G (нет возрастных ограничений)
    Релиз от: Natasha77
    Продолжительность: ~ 00: 01: 00 - 00: 02: 00
    Качество видео: WEB-DLRip
    Перевод: Не требуется (русский)
    Видео: AVC/H.264, 1280x720, ~1500 kbps
    Аудио: AC3, 2 ch, 192 kbps
    Код: выделить все

    General
    Unique ID : 153099009389056558977051304218852406743 (0x732DCBF229558A2CB70CA109619135D7)
    Complete name : C:Мульт и Музыка (720p-AVC)18_Сказочный патруль. Клип Персонажи сказки.mkv
    Format : Matroska
    Format version : Version 4/Version 2
    File size : 25.1 MiB
    Duration : 2 min 11 s
    Overall bit rate : 1 607 kb/s
    Writing application : Lavf57.71.100
    Writing library : Lavf57.71.100
    ErrorDetectionType : Per level 1
    Video
    ID : 1
    Format : AVC
    Format/Info : Advanced Video Codec
    Format profile : Baseline@L3
    Format settings : 2 Ref Frames
    Format settings, CABAC : No
    Format settings, RefFrames : 2 frames
    Codec ID : V_MPEG4/ISO/AVC
    Duration : 2 min 11 s
    Bit rate : 1 383 kb/s
    Width : 1 280 pixels
    Height : 720 pixels
    Display aspect ratio : 16:9
    Frame rate mode : Constant
    Frame rate : 25.000 FPS
    Color space : YUV
    Chroma subsampling : 4:2:0
    Bit depth : 8 bits
    Scan type : Progressive
    Bits/(Pixel*Frame) : 0.060
    Stream size : 21.6 MiB (86%)
    Writing library : x264 core 144 r2533 c8a773e
    Encoding settings : cabac=0/ref=2/deblock=1:1:1/analyse=0x1:0x131/me=umh/subme=10/psy=1/psy_rd=0.40:0.00/mixed_ref=1/me_range=24/chroma_me=1/trellis=2/8x8dct=0/cqm=0/deadzone=21, 11/fast_pskip=1/chroma_qp_offset=-2/threads=2/lookahead_threads=1/sliced_threads=0/nr=0/decimate=1/interlaced=0/bluray_compat=0/constrained_intra=0/bframes=0/weightp=0/keyint=200/keyint_min=20/scenecut=40/intra_refresh=0/rc_lookahead=60/rc=crf/mbtree=1/crf=26.0/qcomp=0.60/qpmin=0/qpmax=69/qpstep=4/ip_ratio=1.40/aq=1:0.60
    Default : Yes
    Forced : No
    Audio
    ID : 2
    Format : AC-3
    Format/Info : Audio Coding 3
    Format settings, Endianness : Big
    Codec ID : A_AC3
    Duration : 2 min 11 s
    Bit rate mode : Constant
    Bit rate : 192 kb/s
    Channel(s) : 2 channels
    Channel positions : Front: L R
    Sampling rate : 44.1 kHz
    Frame rate : 28.711 FPS (1536 SPF)
    Bit depth : 16 bits
    Compression mode : Lossy
    Stream size : 3.00 MiB (12%)
    Service kind : Complete Main
    Default : Yes
    Forced : No
    01_Лео и Тиг. Клип Песня Аистов
    02_Сказочный патруль. Рэп Алёнки на главной сцене
    03_Ми-Ми-Мишки. Песня для Лисички
    04_Аркадий Паравозов. Заставочная песня
    05_Герои Энвелла. Вальс
    06_Герои Энвелла. Заставочная песня
    07_Деревяшки. Заставочная песня и Кошка
    08_Деревяшки. Заставочная песня и все герои
    09_Ми-Ми-Мишки. Цыпа почтальон
    10_Ми-Ми-Мишки. Всё наоборот
    11_Ми-Ми-Мишки. Мода
    12_Ми-Ми-Мишки. В игре
    13_Ми-Ми-Мишки. Кеша FM 2
    14_Ми-Ми-Мишки. Кеша и Тучка поют песню
    15_Ми-Ми-Мишки. Песенка Лисички
    16_Ми-Ми-Мишки. Полёт Лисички
    17_С.О.Б.Е.З. Заставочная песня
    18_Сказочный патруль. Клип Персонажи сказки
    19_Сказочный патруль. Персонажи сказки
    20_Четверо в кубе. Пиратская песня

    Скриншоты для ознакомления


    МУЛЬТ и МУЗЫКА на NoNaMe Club


    Онлайн видео МУЛЬТ и МУЗЫКА (2017) WEB-DLRip [H.264



    МУЛЬТ и МУЗЫКА (2017) WEB-DLRip [H.264/720p-LQ] (серии 1-20)
    Рейтинг →
     (голосов: 1, оценка 4/5, голосовать можно 1 раз )

    Другие торренты по теме:

  • VA - Мульт-и BOOM !!! (2015) [MP3|320 кб / с]<Soundtrack, Dance> скачать через торрент бесплатно
  • Мульт утро. Выпуск 1 (2015.10.31) HDTV [H.264 / 1080i] скачать через торрент бесплатно
  • Мульт утро. Выпуск 2 (2015.11.07) HDTV [H.264 / 1080i] скачать через торрент бесплатно
  • Мульт утро. Выпуск 2 (2015.11.07) HDTVRip скачать через торрент бесплатно
  • Мульт утро. Выпуск 1 (2015.10.31) HDTVRip скачать через торрент бесплатно
  • Мульт утро. Выпуск 3 (2015.11.14) HDTV [H.264 / 1080i] скачать через торрент бесплатно
  • Мульт утро. Выпуск 3 (2015.11.14) HDTVRip скачать через торрент бесплатно
  • Мульт утро. Выпуск 4 (2015.11.21) HDTV [H.264 / 1080i] скачать через торрент бесплатно


    • Комментарии (0):

      Информация

      Информация

        Посетители, находящиеся в группе Гости, не могут оставлять комментарии в данной новости.

        ↓ Меню




        ↓ Опрос

        Вы добавили сайт в закладки?
        Да
        Нет


        Top 10 за месяц (Мультфильмы)