.
Авторизация | Регистрация

Торрент скачать бесплатно

  • support: webmaster@btracker.club
» » Лего Фильм: Бэтмен / The LEGO Batman Movie (2017) WEB-DLRip [H.264] торрент скачать бесплатно


    Лего Фильм: Бэтмен / The LEGO Batman Movie (2017) WEB-DLRip [H.264] торрент скачать бесплатно

    Дата: 26-05-2017, 05:00 | .torrent скачали: 0

    Лего Фильм: Бэтмен / The LEGO Batman Movie (2017) WEB-DLRip [H.264]Производство: США, Дания
    Жанр: Мультфильм, фэнтези, боевик, комедия, приключения, семейный
    Режиссер: Крис МакКей
    В ролях: Уилл Арнетт, Майкл Сера, Розарио Доусон, Рэйф Файнс, Сири, Зак Галифианакис, Дженни Слейт, Джейсон Манцукас, Конан О’Брайен, Даг Бенсон

    Описание

    Готэму вновь грозит опасность. И на его стражу становится единственный герой, которого заслуживает этот город — Бэтмен, альтер-эго миллиардера Брюса Уэйна, живущего в своем огромном родовом поместье вместе с дворецким Альфредом. О таком странном сюжете не догадывалась даже ВиаГра. Но в этот раз супергерой вынужден взять в напарники парня по имени Дик Грейсон, которого он, сам того не помня, усыновил на одном из светских приемов. Новоиспеченный Робин составит Бэтмену компанию в борьбе с его заклятым врагом Джокером, сбежавшим из психиатрической больницы Аркхем, а также Харли Куинн, готовой на самые сумасшедшие злодеяния, чтобы оставить в дураках всю Лигу Справедливости, включая Бэтгерл.

    Возраст: 6+ (зрителям, достигшим 6 лет)
    Рейтинг MPAA: PG (рекомендуется присутствие родителей)
    Дата мировой премьеры: 1 февраля 2017
    Дата российской премьеры: 9 февраля 2017, Каро-Премьер
    Релиз от: NNMClub
    Продолжительность: 01: 44: 28
    Качество видео: WEB-DLRip
    Перевод: Дублированный
    Субтитры: Русские (Forced, iTunes), Русские (iTunes)
    Видео: H.264/AVC, 720x300 (2, 40: 1), ~1295 kbps (0.250 bit/pixel)
    Aудио 1: Русский(Dolby AC3, 48 kHz, 2 ch, 192 kbps) - Дублированный, iTunes Russia
    Aудио 2: Английский(Dolby AC3, 48 kHz, AC3 5.1, 6 ch, 384 kbps) - Оригинал

    Общее
    Уникальный идентификатор : 243655546386472716557944797623872418552 (0xB74E59EE2721268699AAAD15E7A072F8)
    Полное имя : The.LEGO.Batman.Movie.2017.WEB-DLRip_NNMClub.mkv
    Формат : Matroska
    Версия формата : Version 4/Version 2
    Размер файла : 1, 37 Гбайт
    Продолжительность : 1 ч. 44 м.
    Общий поток : 1873 Кбит/сек
    Название фильма : Лего Фильм: Бэтмен/The LEGO Batman Movie (2017) WEB-DLRip | Release for NNMClub
    Дата кодирования : UTC 2017-05-25 01: 12: 42
    Программа кодирования : mkvmerge v11.0.0 (\'Alive\') 64bit
    Библиотека кодирования : libebml v1.3.4 + libmatroska v1.4.5
    Видео
    Идентификатор : 1
    Формат : AVC
    Формат/Информация : Advanced Video Codec
    Профиль формата : High@L4.1
    Параметр CABAC формата : Да
    Параметр ReFrames формата : 2 кадра
    Идентификатор кодека : V_MPEG4/ISO/AVC
    Продолжительность : 1 ч. 44 м.
    Битрейт : 1295 Кбит/сек
    Ширина : 720 пикселей
    Высота : 300 пикселей
    Соотношение сторон : 2, 40: 1
    Режим частоты кадров : Переменный
    Частота кадров : 23, 976 кадра/сек
    Цветовое пространство : YUV
    Субдискретизация насыщенности : 4: 2: 0
    Битовая глубина : 8 бит
    Тип развёртки : Прогрессивная
    Бит/(Пиксели*Кадры) : 0.250
    Размер потока : 967 Мбайт (69%)
    Заголовок : The LEGO Batman Movie (2017) - Release for NNMClub (Rip by Seryoga0624)
    Библиотека кодирования : x264 core 142
    Настройки программы : cabac=1/ref=1/deblock=1: -1: -1/analyse=0x3: 0/me=hex/subme=5/psy=0/mixed_ref=0/me_range=16/chroma_me=1/trellis=0/8x8dct=1/cqm=0/deadzone=21, 11/fast_pskip=0/chroma_qp_offset=0/threads=4/lookahead_threads=1/sliced_threads=0/nr=0/decimate=1/interlaced=0/bluray_compat=0/constrained_intra=0/bframes=2/b_pyramid=0/b_adapt=1/b_bias=0/direct=1/weightb=0/open_gop=0/weightp=0/keyint=24/keyint_min=13/scenecut=40/intra_refresh=0/rc=2pass/mbtree=0/bitrate=1295/ratetol=1.0/qcomp=0.60/qpmin=0/qpmax=69/qpstep=4/cplxblur=20.0/qblur=0.5/ip_ratio=1.40/pb_ratio=1.30/aq=1: 1.00
    Default : Да
    Forced : Нет
    Цветовой диапазон : Limited
    Основные цвета : BT.601 NTSC
    Характеристики трансфера : BT.709
    Коэффициенты матрицы : BT.601
    Аудио #1
    Идентификатор : 2
    Формат : AC-3
    Формат/Информация : Audio Coding 3
    Расширение режима : CM (complete main)
    Параметр Endianness формата : Big
    Идентификатор кодека : A_AC3
    Продолжительность : 1 ч. 44 м.
    Вид битрейта : Постоянный
    Битрейт : 192 Кбит/сек
    Каналы : 2 канала
    Расположение каналов : Front: L R
    Частота : 48, 0 КГц
    Частота кадров : 31, 250 кадров/сек (1536 spf)
    Метод сжатия : С потерями
    Размер потока : 143 Мбайт (10%)
    Заголовок : Дублированный Dolby AC3 2 ch , 192 Kbps - iTunes Russia
    Язык : Russian
    Default : Да
    Forced : Нет
    Аудио #2
    Идентификатор : 3
    Формат : AC-3
    Формат/Информация : Audio Coding 3
    Расширение режима : CM (complete main)
    Параметр Endianness формата : Big
    Идентификатор кодека : A_AC3
    Продолжительность : 1 ч. 44 м.
    Вид битрейта : Постоянный
    Битрейт : 384 Кбит/сек
    Каналы : 6 каналов
    Расположение каналов : Front: L C R, Side: L R, LFE
    Частота : 48, 0 КГц
    Частота кадров : 31, 250 кадров/сек (1536 spf)
    Метод сжатия : С потерями
    Размер потока : 287 Мбайт (21%)
    Заголовок : Original Dolby AC3 5.1 ch , 384 Kbps
    Язык : English
    Default : Нет
    Forced : Нет
    Текст #1
    Идентификатор : 4
    Формат : UTF-8
    Идентификатор кодека : S_TEXT/UTF8
    Идентификатор кодека/Информация : UTF-8 Plain Text
    Продолжительность : 1 ч. 36 м.
    Битрейт : 4 бит/сек
    Count of elements : 74
    Размер потока : 2, 91 Кбайт (0%)
    Заголовок : Forced, iTunes
    Язык : Russian
    Default : Да
    Forced : Нет
    Текст #2
    Идентификатор : 5
    Формат : UTF-8
    Идентификатор кодека : S_TEXT/UTF8
    Идентификатор кодека/Информация : UTF-8 Plain Text
    Продолжительность : 1 ч. 44 м.
    Битрейт : 130 бит/сек
    Count of elements : 2178
    Размер потока : 99, 7 Кбайт (0%)
    Заголовок : iTunes
    Язык : Russian
    Default : Нет
    Forced : Нет


    Скриншоты для ознакомления




    Онлайн видео Лего Фильм: Бэтмен



    Лего Фильм: Бэтмен/The LEGO Batman Movie (2017) WEB-DLRip [H.264]
    Рейтинг →
     (голосов: 1, оценка 3/5, голосовать можно 1 раз )

    Другие торренты по теме:

  • Лего Фильм: Бэтмен / The Lego Batman Movie (2017) DCPRip [2K] [Hi10P, Hi444PP] [Трейлер]
  • Лего фильм: Бэтмен / The LEGO Batman Movie (2017) CamRip
  • VA, Lorne Balfe - The LEGO Batman Movie / Лего Фильм: Бэтмен (Original Motion Picture Soundtrack) (2017) [FLAC|Lossless|WEB-DL|tracks]<Soundtrack, Score>
  • VA, Lorne Balfe - The LEGO Batman Movie / Лего Фильм: Бэтмен (Original Motion Picture Soundtrack) (2017) [MP3|320 кб / с]<Soundtrack, Score>
  • Лего Фильм: Бэтмен / The LEGO Batman Movie (2017) TS
  • Лего Фильм: Бэтмен / The LEGO Batman Movie (2017) WEB-DL [H.264 / 1080p-LQ] [EN / RU, EN Sub]
  • Лего Фильм: Бэтмен / The LEGO Batman Movie (2017) WEB-DLRip
  • Лего Фильм: Бэтмен / The LEGO Batman Movie (2017) WEB-DL [H.264 / 1080p-LQ]


    • Комментарии (0):

      Информация

      Информация

        Посетители, находящиеся в группе Гости, не могут оставлять комментарии в данной новости.

        ↓ Меню




        ↓ Опрос

        Вы добавили сайт в закладки?
        Да
        Нет


        Top 10 за месяц (Мультфильмы)