.
Авторизация | Регистрация

Торрент скачать бесплатно

  • support: webmaster@btracker.club
» » Кобра Кай / Cobra Kai (2019) WEB-DLRip [H.264] (сезон 2, серии 1-10 из 10) VHSник [MP4|1280x720] [VO] торрент скачать бесплатно


    Кобра Кай / Cobra Kai (2019) WEB-DLRip [H.264] (сезон 2, серии 1-10 из 10) VHSник [MP4|1280x720] [VO] торрент скачать бесплатно

    Дата: 19-05-2019, 05:02 | .torrent скачали: 0

    Кобра Кай / Cobra Kai (2019) WEB-DLRip [H.264] (сезон 2, серии 1-10 из 10) VHSник [MP4|1280x720] [VO]Производство: США/Hurwitz Schlossberg Productions, Overbrook Entertainment, Sony Pictures Television
    Жанр: Боевик, Драма, Комедия
    Режиссер: Джон Харвитц, Хейден Шлоссберг, Дженнифер Челотта
    Актеры: Ральф Маччио, Уильям Забка, Кортни Хенгелер, Холо Маридуэньо, Тэннер Бьюкэнэн, Мэри Мэтилин Маусер, Джейкоб Бертран, Джанни Десенцо и др.

    Описание

    В прошлом хулиган, а ныне разорившийся неудачник, Джонни Лоуренс считает, что единственный его шанс вернуться к нормальной жизни — заново открыть печально известную школу карате Кобра Кай. Попытка наладить свои дела сводит Джонни с Дэниелом ЛаРуссо — успешным мужчиной, который изо всех сил старается сохранять жизненную гармонию, которой когда-то учил его мистер Мияги. Встретившись вновь, Дэнни и Джонни пытаются избавиться от демонов прошлого и проблем настоящего единственным известным им способом — с помощью карате.

    Дата мировой премьеры: 02 мая 2018
    Продолжительность: ~ 00: 30: 00 серия
    Качество видео: WEB-DLRip
    Перевод: Любительский одноголосый (VHSник )
    Субтитры: нет
    Реклама: в начале присутствует заставка с логотипом переводчика
    Видео: AVC/H.264, 1280x720, ~1992 kbps
    Аудио: AAC, 2 ch, ~192 kbps

    General
    Complete name : C: Lyova55Кобра Кай - сезон 2, серия 2 - VHSник.mp4
    Format : MPEG-4
    Format profile : Base Media/Version 2
    Codec ID : mp42 (isom/mp42)
    File size : 469 MiB
    Duration : 30 min 0 s
    Overall bit rate mode : Variable
    Overall bit rate : 2 184 kb/s
    Encoded date : UTC 2019-04-25 15: 14: 09
    Tagged date : UTC 2019-04-25 15: 14: 09
    Video
    ID : 1
    Format : AVC
    Format/Info : Advanced Video Codec
    Format profile : High@L3.1
    Format settings : CABAC/1 Ref Frames
    Format settings, CABAC : Yes
    Format settings, ReFrames : 1 frame
    Format settings, GOP : M=1, N=30
    Codec ID : avc1
    Codec ID/Info : Advanced Video Coding
    Duration : 30 min 0 s
    Bit rate : 1 992 kb/s
    Width : 1 280 pixels
    Height : 720 pixels
    Display aspect ratio : 16: 9
    Frame rate mode : Constant
    Frame rate : 23.976 (24000/1001) FPS
    Color space : YUV
    Chroma subsampling : 4: 2: 0
    Bit depth : 8 bits
    Scan type : Progressive
    Bits/(Pixel*Frame) : 0.090
    Stream size : 427 MiB (91%)
    Language : English
    Encoded date : UTC 2019-04-25 15: 14: 11
    Tagged date : UTC 2019-04-25 15: 14: 11
    Codec configuration box : avcC
    Audio
    ID : 2
    Format : AAC LC
    Format/Info : Advanced Audio Codec Low Complexity
    Codec ID : mp4a-40-2
    Duration : 30 min 0 s
    Bit rate mode : Variable
    Bit rate : 192 kb/s
    Maximum bit rate : 527 kb/s
    Channel(s) : 2 channels
    Channel layout : L R
    Sampling rate : 48.0 kHz
    Frame rate : 46.875 FPS (1024 SPF)
    Compression mode : Lossy
    Stream size : 40.7 MiB (9%)
    Language : English
    Encoded date : UTC 2019-04-25 15: 14: 11
    Tagged date : UTC 2019-04-25 15: 14: 11


    Кобра Кай/Cobra Kai (2019) WEB-DLRip [H.264] (сезон 2, серии 1-10 из 10) VHSник [MP4|1280x720] [VO]
    Рейтинг →
     (голосов: 1, оценка 3/5, голосовать можно 1 раз )

    Другие торренты по теме:

  • Кобра / Cobra (1986) BDRip [H.264 / 1080p-LQ] [Hi10P] скачать через торрент бесплатно
  • Кобра / Cobra (1986) BDRip [H.264 / 720p-LQ] [Hi10P]
  • Женщина-кобра / Cobra Woman (1944) DVDRip [H.264] [VO]
  • Кобра / Cobra (1986) BDRip [H.264] скачать через торрент бесплатно
  • Кобра / Cobra (1986) BDRip [H.265 / 1080p-LQ]
  • Кобра / Cobra (1986) BDRip [H.264 / 1080p]
  • Кобра / Cobra (1986) BDRip [H.264 / 1080p-LQ]
  • Королевская кобра / King Cobra (2016) BDRip [H.264 / 720p] [EN]


    • Комментарии (0):

      Информация

      Информация

        Посетители, находящиеся в группе Гости, не могут оставлять комментарии в данной новости.

        ↓ Меню




        ↓ Опрос

        Вы добавили сайт в закладки?
        Да
        Нет


        Top 10 за месяц (КПК и мобильные)