.
Авторизация | Регистрация

Торрент скачать бесплатно

  • support: webmaster@btracker.club
» » Алкоголь. Незримый враг (2019) HDTV [H.264] [MP4|1920x1080] торрент скачать бесплатно


    Алкоголь. Незримый враг (2019) HDTV [H.264] [MP4|1920x1080] торрент скачать бесплатно

    Дата: 26-04-2019, 05:00 | .torrent скачали: 7

    Алкоголь. Незримый враг (2019) HDTV [H.264] [MP4|1920x1080]Производство: Россия
    Жанр: документальный, семейный, просветительский, познавательный
    Режиссер: Алексей Дегтярёв
    Участники: Владимир Зрянин, Галина Горбачёва, Марина Соловьёва, Александр Немцов, Алексей Решетун, Игорь Петренко, Елена Скворцова, Марина Колосницына, Леонид Варламов, Николай Говорин

    Описание

    Порой кажется, что в вопросе алкоголизации уже всё сказали. Но проблема по-прежнему остаётся очень острой. Документальный фильмОбщероссийской общественной организации Общее делопредлагает посмотреть на нашу жизнь через призму сообщества, которое появилось на нашей планете десятки миллионов лет назад. Что происходит, когда они сталкиваются с этим незримым врагом?
    Возраст: 16+ (зрителям, достигшим 16 лет)
    Дата российской премьеры: 22.04.2019
    Продолжительность: 00: 37: 11
    Качество видео: HDTV
    Перевод: Отсутствует
    Субтитры: Отсутствуют
    Видео: AVC/H.264, 1920x1080, ~2968 Кбит/сек
    Аудио: AAC, 2 ch, 128 Кбит/сек

    Общее
    Полное имя : E: NNM-Club_Алкоголь. Незримый враг.mp4
    Формат : MPEG-4
    Профиль формата : Base Media
    Идентификатор кодека : isom (isom/iso2/avc1/mp41)
    Размер файла : 825 Мбайт
    Продолжительность : 37 м. 10 с.
    Общий поток : 3102 Кбит/сек
    Программа кодирования : Lavf57.2.100
    Видео
    Идентификатор : 1
    Формат : AVC
    Формат/Информация : Advanced Video Codec
    Профиль формата : High@L4
    Настройки формата : CABAC/3 Ref Frames
    Параметр CABAC формата : Да
    Параметр RefFrames формата : 3 кадра
    Идентификатор кодека : avc1
    Идентификатор кодека/Информация : Advanced Video Coding
    Продолжительность : 37 м. 10 с.
    Битрейт : 2968 Кбит/сек
    Ширина : 1920 пикселей
    Высота : 1080 пикселей
    Соотношение сторон : 16: 9
    Режим частоты кадров : Постоянный
    Частота кадров : 25, 000 кадров/сек
    Цветовое пространство : YUV
    Субдискретизация насыщенности : 4: 2: 0
    Битовая глубина : 8 бит
    Тип развёртки : Прогрессивная
    Бит/(Пиксели*Кадры) : 0.057
    Размер потока : 789 Мбайт (96%)
    Цветовой диапазон : Limited
    Основные цвета : BT.709
    Характеристики трансфера : BT.709
    Коэффициенты матрицы : BT.709
    Codec configuration box : avcC
    Аудио
    Идентификатор : 2
    Формат : AAC LC
    Формат/Информация : Advanced Audio Codec Low Complexity
    Идентификатор кодека : mp4a-40-2
    Продолжительность : 37 м. 10 с.
    Вид битрейта : Постоянный
    Битрейт : 128 Кбит/сек
    Каналы : 2 канала
    ChannelLayout : L R
    Частота : 44, 1 КГц
    Частота кадров : 43, 066 кадра/сек (1024 SPF)
    Метод сжатия : С потерями
    Размер потока : 34, 0 Мбайт (4%)
    Язык : English
    Default : Да
    AlternateGroup/String : 1


    Алкоголь. Незримый враг (2019) HDTV [H.264] [MP4|1920x1080]
    Рейтинг →
     (голосов: 1, оценка 4/5, голосовать можно 1 раз )

    Другие торренты по теме:

  • Ц. П. Короленко, В. Ю. Завьялов | Личность и алкоголь (1987) [DJVU]
  • Самые шокирующие гипотезы. Алкоголь придумали масоны (16.07.2015) SATRip скачать через торрент бесплатно
  • Теория заговора. Паленый алкоголь (2015.12.12) SATRip скачать через торрент бесплатно
  • Место встречи. Алкоголь реабилитирован (22.03.2016) SATRip
  • Адам Макдауэлл | Drinks. Практический путеводитель. Крепкий алкоголь. Коктейли. Вино & пиво (2017) [FB2]
  • Алкоголь Сканер v1.3.1 Ad-Free [Ru]
  • Osake wa Fuufu ni Natte kara | Супружеская пара и алкоголь [2017, TV, 1 из 12] WEBRip 720p raw
  • П. Н. Ягодка | Осторожно, алкоголь! (1973) [DJVU]


    • Комментарии (0):

      Информация

      Информация

        Посетители, находящиеся в группе Гости, не могут оставлять комментарии в данной новости.

        ↓ Меню




        ↓ Опрос

        Вы добавили сайт в закладки?
        Да
        Нет


        Top 10 за месяц (КПК и мобильные)