.
Авторизация | Регистрация

Торрент скачать бесплатно

  • support: webmaster@btracker.club
» » Махакали. Конец - это Начало / Mahakali / Mahakaali - Anth Hi Aarambh Hai (2017) WEB-DLRip [H.264] (серии 1-91 из 95) [MVO] [MP4|1280x720] [HIN / RU Sub] торрент скачать бесплатно


    Махакали. Конец - это Начало / Mahakali / Mahakaali - Anth Hi Aarambh Hai (2017) WEB-DLRip [H.264] (серии 1-91 из 95) [MVO] [MP4|1280x720] [HIN / RU Sub] торрент скачать бесплатно

    Дата: 13-04-2019, 05:00 | .torrent скачали: 6

    Махакали. Конец - это Начало / Mahakali / Mahakaali - Anth Hi Aarambh Hai (2017) WEB-DLRip [H.264] (серии 1-91 из 95) [MVO] [MP4|1280x720] [HIN / RU Sub]Производство: Индия, Swastik Productions
    Жанр: Фэнтези, Драма, Семейный
    Режиссер: Siddharth Kumar Tewary
    Актеры: Пуджа Шарма, Саурабх Радж Джейн, Фалак Наз, Никита Шарма, Канан Малхотра, Гаган Канг, Sagar Saikia, Hitanshu Jinsi, Kunwar Pratham, Arjun - Сурья, Абхас Мехта, Danish Akhtar Saifi, Jai Harsh Vardhan, Arjit Lavania

    Описание

    История о самой страшной и загадочной индийской богине — Кали. Некоторые секты почитали её как богиню смерти и разрушения и приносили ей кровавые человеческие жертвы. На самом же деле, гирлянда черепов, висящая на шее богини, означает череду человеческих воплощений, а её синий цвет — это цвет бесконечного космического. Сериал основан на индуистской мифологии и рассказывает о том, что Кали — действительно символ разрушения, но она разрушает невежество и поддерживает порядок в мире.
    Сериал основан на истории Богини Ади Шакти и её воплощениях, Парвати и Махакали. Также он рассказывает о других реинкарнациях Парвати.

    Релиз от: om_ocean_of_wisdom Океан Мудрости и mahakaliozvicka Русская озвучка.
    Продолжительность: ~00: 42: 00 серия
    Качество видео: WEB-DLRip
    Перевод: Двуголосый закадровый
    Автор перевода: София Янкаускайте
    Субтитры: Русские (неотключаемые)
    Видео: AVC/H.264, 1280x720, ~1500 Kbps
    Аудио: AAC, 2 ch, 192 Kbps - русский, двуголосый закадровый

    Полное имя : M: Махакали. Конец — это Начало. (Русская озвучка)Mahakali.01.mp4
    Формат : MPEG-4
    Профиль формата : Base Media
    Идентификатор кодека : isom
    Размер файла : 730 Мбайт
    Продолжительность : 59 м.
    Общий поток : 1702 Кбит/сек
    Программа кодирования : Lavf57.71.100
    Видео
    Идентификатор : 1
    Формат : AVC
    Формат/Информация : Advanced Video Codec
    Профиль формата : High@L3.1
    Параметр CABAC формата : Да
    Параметр ReFrames формата : 4 кадра
    Идентификатор кодека : avc1
    Идентификатор кодека/Информация : Advanced Video Coding
    Продолжительность : 59 м.
    Битрейт : 1500 Кбит/сек
    Ширина : 1280 пикселей
    Высота : 720 пикселей
    Соотношение сторон : 16: 9
    Режим частоты кадров : Постоянный
    Частота кадров : 25, 000 кадров/сек
    Цветовое пространство : YUV
    Субдискретизация насыщенности : 4: 2: 0
    Битовая глубина : 8 бит
    Тип развёртки : Прогрессивная
    Бит/(Пиксели*Кадры) : 0.065
    Размер потока : 645 Мбайт (88%)
    Библиотека кодирования : x264 core 146 r2538 121396c
    Настройки программы : cabac=1/ref=3/deblock=1: 0: 0/analyse=0x3: 0x133/me=hex/subme=7/psy=1/psy_rd=1.00: 0.00/mixed_ref=1/me_range=16/chroma_me=1/trellis=1/8x8dct=1/cqm=0/deadzone=21, 11/fast_pskip=1/chroma_qp_offset=-2/threads=6/lookahead_threads=1/sliced_threads=0/nr=0/decimate=1/interlaced=0/bluray_compat=0/constrained_intra=0/bframes=3/b_pyramid=2/b_adapt=1/b_bias=0/direct=1/weightb=1/open_gop=0/weightp=2/keyint=250/keyint_min=25/scenecut=40/intra_refresh=0/rc_lookahead=40/rc=abr/mbtree=1/bitrate=1500/ratetol=1.0/qcomp=0.60/qpmin=10/qpmax=51/qpstep=4/ip_ratio=1.40/aq=1: 1.00
    Аудио
    Идентификатор : 2
    Формат : AAC
    Формат/Информация : Advanced Audio Codec
    Профиль формата : LC
    Идентификатор кодека : 40
    Продолжительность : 59 м.
    Вид битрейта : Постоянный
    Битрейт : 192 Кбит/сек
    Каналы : 2 канала
    Расположение каналов : Front: L R
    Частота : 44, 1 КГц
    Метод сжатия : С потерями
    Размер потока : 82, 3 Мбайт (11%)
    Язык : English


    Махакали. Конец - это Начало/Mahakali/Mahakaali - Anth Hi Aarambh Hai (2017) WEB-DLRip [H.264] (серии 1-91 из 95) [MVO] [MP4|1280x720] [HIN/RU Sub]
    Рейтинг →
     (голосов: 1, оценка 3/5, голосовать можно 1 раз )

    Другие торренты по теме:

  • Махакали. Конец - это Начало / Mahakali / Mahakaali - Anth Hi Aarambh Hai (2017) WEB-DLRip [H.264] [MP4|1280x720] (серии 1-95 из 95) [HIN / RU Sub]


    • Комментарии (0):

      Информация

      Информация

        Посетители, находящиеся в группе Гости, не могут оставлять комментарии в данной новости.

        ↓ Меню




        ↓ Опрос

        Вы добавили сайт в закладки?
        Да
        Нет


        Top 10 за месяц (КПК и мобильные)