.
Авторизация | Регистрация

Торрент скачать бесплатно

  • support: webmaster@btracker.club
» » В твоих силах изменить это (2019) UHD [H.264] [MP4|3840х2160] [4K] торрент скачать бесплатно


    В твоих силах изменить это (2019) UHD [H.264] [MP4|3840х2160] [4K] торрент скачать бесплатно

    Дата: 11-04-2019, 05:00 | .torrent скачали: 0

    В твоих силах изменить это (2019) UHD [H.264] [MP4|3840х2160] [4K]Производство: Россия
    Жанр: семейный, просветительский, познавательный
    Режиссер: Общероссийская общественная организация Общее дело
    Актеры: дети

    Описание

    Очевидно, что проблема употребления алкоголя до сих пор является очень острой для нашей страны. Свыше 80% детей в детских домах – дети родителей, лишённых родительских прав из-за алкоголя. У оставшихся 20% детей основная причина смерти родителей — алкоголь. Алкоголь — это основная причина тяжких преступлений в нашей стране.
    Серия новых роликов социальной рекламы под общим названием В твоих силах изменить это призвана вдохновить людей на отказ от употребления спиртного. Это безусловно будет способствовать оздоровлению и укреплению Российского общества.
    Данная серия роликов, созданных общероссийской общественной организацией поддержки президентских инициатив в области здоровьесбережения нации“Общее дело”, может применяться для широкого информирования населения об опасности потребления алкоголя, в самых разных средствах массовой информации: на телевидении, в кинотеатрах перед показом прокатных лент, в местах массового скопления людей, где установлены информационные экраны, на светодиодных уличных рекламных щитах и т.д.
    Ролики созданы на добровольные перечисления неравнодушных людей.
    Возраст: 18+ (зрителям, достигшим 18 лет. запрещено для детей)
    Продолжительность: 4 х 00: 00: 45
    Качество видео: UHD 2160p (4K)
    Перевод: Отсутствует
    Субтитры: Отсутствуют
    Видео: AVC/H.264, 3840х2160, ~88, 0 Мбит/сек
    Аудио: AAC, 2 ch, 317 Кбит/сек
    Общее
    Полное имя : E: NNM-Club_В твоих силах изменить этоБудущее сирот из детских домов.mp4
    Формат : MPEG-4
    Профиль формата : Base Media/Version 2
    Идентификатор кодека : mp42 (mp42/mp41)
    Размер файла : 485 Мбайт
    Продолжительность : 46 с. 40 мс.
    Режим общего битрейта : Переменный
    Общий поток : 88, 3 Мбит/сек
    Дата кодирования : UTC 2019-01-27 16: 45: 21
    Дата пометки : UTC 2019-01-27 16: 46: 51
    TIM : 00: 01: 23: 09
    TSC : 25
    TSZ : 1
    Видео
    Идентификатор : 1
    Формат : AVC
    Формат/Информация : Advanced Video Codec
    Профиль формата : Main@L5.1
    Настройки формата : CABAC/4 Ref Frames
    Параметр CABAC формата : Да
    Параметр RefFrames формата : 4 кадра
    Идентификатор кодека : avc1
    Идентификатор кодека/Информация : Advanced Video Coding
    Продолжительность : 46 с. 40 мс.
    Битрейт : 88, 0 Мбит/сек
    Ширина : 3840 пикселей
    Высота : 2160 пикселей
    Соотношение сторон : 16: 9
    Режим частоты кадров : Постоянный
    Частота кадров : 25, 000 кадров/сек
    Цветовое пространство : YUV
    Субдискретизация насыщенности : 4: 2: 0
    Битовая глубина : 8 бит
    Тип развёртки : Прогрессивная
    Бит/(Пиксели*Кадры) : 0.424
    Размер потока : 483 Мбайт (100%)
    Язык : English
    Дата кодирования : UTC 2019-01-27 16: 45: 21
    Дата пометки : UTC 2019-01-27 16: 45: 21
    Цветовой диапазон : Limited
    Основные цвета : BT.709
    Характеристики трансфера : BT.709
    Коэффициенты матрицы : BT.709
    Codec configuration box : avcC
    Аудио
    Идентификатор : 2
    Формат : AAC LC
    Формат/Информация : Advanced Audio Codec Low Complexity
    Идентификатор кодека : mp4a-40-2
    Продолжительность : 46 с. 40 мс.
    Продолжительность оригинала : 46 с. 80 мс.
    Вид битрейта : Переменный
    Битрейт : 317 Кбит/сек
    Максимальный битрейт : 408 Кбит/сек
    Каналы : 2 канала
    Channel layout : L R
    Частота : 48, 0 КГц
    Частота кадров : 46, 875 кадров/сек (1024 SPF)
    Метод сжатия : С потерями
    Размер потока : 1, 74 Мбайт (0%)
    Размер потока оригинала : 1, 74 Мбайт (0%)
    Язык : English
    Дата кодирования : UTC 2019-01-27 16: 45: 21
    Дата пометки : UTC 2019-01-27 16: 45: 21
    Общее
    Полное имя : E: NNM-Club_В твоих силах изменить этоАлкоголь и преступления.mp4
    Формат : MPEG-4
    Профиль формата : Base Media/Version 2
    Идентификатор кодека : mp42 (mp42/mp41)
    Размер файла : 512 Мбайт
    Продолжительность : 46 с. 760 мс.
    Режим общего битрейта : Переменный
    Общий поток : 91, 8 Мбит/сек
    Дата кодирования : UTC 2019-03-15 13: 30: 51
    Дата пометки : UTC 2019-03-15 13: 35: 03
    TIM : 00: 00: 09: 22
    TSC : 25
    TSZ : 1
    Видео
    Идентификатор : 1
    Формат : AVC
    Формат/Информация : Advanced Video Codec
    Профиль формата : Main@L5.1
    Настройки формата : CABAC/4 Ref Frames
    Параметр CABAC формата : Да
    Параметр RefFrames формата : 4 кадра
    Идентификатор кодека : avc1
    Идентификатор кодека/Информация : Advanced Video Coding
    Продолжительность : 46 с. 760 мс.
    Битрейт : 91, 5 Мбит/сек
    Ширина : 4096 пикселей
    Высота : 2160 пикселей
    Соотношение сторон : 1, 896
    Режим частоты кадров : Постоянный
    Частота кадров : 25, 000 кадров/сек
    Цветовое пространство : YUV
    Субдискретизация насыщенности : 4: 2: 0
    Битовая глубина : 8 бит
    Тип развёртки : Прогрессивная
    Бит/(Пиксели*Кадры) : 0.414
    Размер потока : 510 Мбайт (100%)
    Язык : English
    Дата кодирования : UTC 2019-03-15 13: 30: 58
    Дата пометки : UTC 2019-03-15 13: 30: 58
    Цветовой диапазон : Limited
    Основные цвета : BT.709
    Характеристики трансфера : BT.709
    Коэффициенты матрицы : BT.709
    Codec configuration box : avcC
    Аудио
    Идентификатор : 2
    Формат : AAC LC
    Формат/Информация : Advanced Audio Codec Low Complexity
    Идентификатор кодека : mp4a-40-2
    Продолжительность : 46 с. 760 мс.
    Продолжительность оригинала : 46 с. 827 мс.
    Вид битрейта : Переменный
    Битрейт : 317 Кбит/сек
    Максимальный битрейт : 396 Кбит/сек
    Каналы : 2 канала
    Channel layout : L R
    Частота : 48, 0 КГц
    Частота кадров : 46, 875 кадров/сек (1024 SPF)
    Метод сжатия : С потерями
    Размер потока : 1, 77 Мбайт (0%)
    Размер потока оригинала : 1, 77 Мбайт (0%)
    Язык : English
    Дата кодирования : UTC 2019-03-15 13: 31: 19
    Дата пометки : UTC 2019-03-15 13: 31: 19
    Общее
    Полное имя : E: NNM-Club_В твоих силах изменить этоВ чем причина сиротства.mp4
    Формат : MPEG-4
    Профиль формата : Base Media/Version 2
    Идентификатор кодека : mp42 (mp42/mp41)
    Размер файла : 574 Мбайт
    Продолжительность : 55 с. 0 мс.
    Режим общего битрейта : Переменный
    Общий поток : 87, 6 Мбит/сек
    Дата кодирования : UTC 2019-01-27 16: 43: 36
    Дата пометки : UTC 2019-01-27 16: 45: 18
    TIM : 00: 00: 00: 00
    TSC : 25
    TSZ : 1
    Видео
    Идентификатор : 1
    Формат : AVC
    Формат/Информация : Advanced Video Codec
    Профиль формата : Main@L5.1
    Настройки формата : CABAC/4 Ref Frames
    Параметр CABAC формата : Да
    Параметр RefFrames формата : 4 кадра
    Идентификатор кодека : avc1
    Идентификатор кодека/Информация : Advanced Video Coding
    Продолжительность : 55 с. 0 мс.
    Битрейт : 87, 3 Мбит/сек
    Ширина : 3840 пикселей
    Высота : 2160 пикселей
    Соотношение сторон : 16: 9
    Режим частоты кадров : Постоянный
    Частота кадров : 25, 000 кадров/сек
    Цветовое пространство : YUV
    Субдискретизация насыщенности : 4: 2: 0
    Битовая глубина : 8 бит
    Тип развёртки : Прогрессивная
    Бит/(Пиксели*Кадры) : 0.421
    Размер потока : 572 Мбайт (100%)
    Язык : English
    Дата кодирования : UTC 2019-01-27 16: 43: 39
    Дата пометки : UTC 2019-01-27 16: 43: 39
    Цветовой диапазон : Limited
    Основные цвета : BT.709
    Характеристики трансфера : BT.709
    Коэффициенты матрицы : BT.709
    Codec configuration box : avcC
    Аудио
    Идентификатор : 2
    Формат : AAC LC
    Формат/Информация : Advanced Audio Codec Low Complexity
    Идентификатор кодека : mp4a-40-2
    Продолжительность : 55 с. 0 мс.
    Продолжительность оригинала : 55 с. 40 мс.
    Вид битрейта : Переменный
    Битрейт : 317 Кбит/сек
    Максимальный битрейт : 368 Кбит/сек
    Каналы : 2 канала
    Channel layout : L R
    Частота : 48, 0 КГц
    Частота кадров : 46, 875 кадров/сек (1024 SPF)
    Метод сжатия : С потерями
    Размер потока : 2, 08 Мбайт (0%)
    Размер потока оригинала : 2, 08 Мбайт (0%)
    Язык : English
    Дата кодирования : UTC 2019-01-27 16: 43: 40
    Дата пометки : UTC 2019-01-27 16: 43: 40
    Общее
    Полное имя : E: NNM-Club_В твоих силах изменить этоНасилие над детьми в пьющих семьях.mp4
    Формат : MPEG-4
    Профиль формата : Base Media/Version 2
    Идентификатор кодека : mp42 (mp42/mp41)
    Размер файла : 748 Мбайт
    Продолжительность : 35 с. 280 мс.
    Режим общего битрейта : Переменный
    Общий поток : 178 Мбит/сек
    Дата кодирования : UTC 2019-02-13 09: 41: 33
    Дата пометки : UTC 2019-02-13 09: 43: 55
    TIM : 00: 00: 00: 00
    TSC : 25
    TSZ : 1
    Видео
    Идентификатор : 1
    Формат : AVC
    Формат/Информация : Advanced Video Codec
    Профиль формата : Main@L5.1
    Настройки формата : CABAC/4 Ref Frames
    Параметр CABAC формата : Да
    Параметр RefFrames формата : 4 кадра
    Идентификатор кодека : avc1
    Идентификатор кодека/Информация : Advanced Video Coding
    Продолжительность : 35 с. 280 мс.
    Битрейт : 178 Мбит/сек
    Ширина : 3840 пикселей
    Высота : 2160 пикселей
    Соотношение сторон : 16: 9
    Режим частоты кадров : Постоянный
    Частота кадров : 25, 000 кадров/сек
    Цветовое пространство : YUV
    Субдискретизация насыщенности : 4: 2: 0
    Битовая глубина : 8 бит
    Тип развёртки : Прогрессивная
    Бит/(Пиксели*Кадры) : 0.856
    Размер потока : 747 Мбайт (100%)
    Язык : English
    Дата кодирования : UTC 2019-02-13 09: 41: 35
    Дата пометки : UTC 2019-02-13 09: 41: 35
    Цветовой диапазон : Limited
    Основные цвета : BT.709
    Характеристики трансфера : BT.709
    Коэффициенты матрицы : BT.709
    Codec configuration box : avcC
    Аудио
    Идентификатор : 2
    Формат : AAC LC
    Формат/Информация : Advanced Audio Codec Low Complexity
    Идентификатор кодека : mp4a-40-2
    Продолжительность : 35 с. 280 мс.
    Продолжительность оригинала : 35 с. 328 мс.
    Вид битрейта : Переменный
    Битрейт : 317 Кбит/сек
    Максимальный битрейт : 374 Кбит/сек
    Каналы : 2 канала
    Channel layout : L R
    Частота : 48, 0 КГц
    Частота кадров : 46, 875 кадров/сек (1024 SPF)
    Метод сжатия : С потерями
    Размер потока : 1, 33 Мбайт (0%)
    Размер потока оригинала : 1, 34 Мбайт (0%)
    Язык : English
    Дата кодирования : UTC 2019-02-13 09: 41: 35
    Дата пометки : UTC 2019-02-13 09: 41: 35


    В твоих силах изменить это (2019) UHD [H.264] [MP4|3840х2160] [4K]
    Рейтинг →
     (голосов: 1, оценка 5/5, голосовать можно 1 раз )

    Другие торренты по теме:

  • Только для твоих глаз / For Your Eyes Only (1981) BDRip [H.264 / 720р-LQ] скачать через торрент бесплатно
  • VA - Car Audio. Мёд для твоих ушей (2015) [MP3|320 кб / с]<Deep, Tech, G-House, Progressive, Techno> скачать через торрент бесплатно
  • VA - Музыка Твоих Крыльев (Special Volume) (2006) [MP3|320 кб / с] <Rock, Hard Rock, Ballads> скачать через торрент бесплатно
  • Артур Хейли | На высотах твоих (2016) [MP3]
  • Подшивка журналов | Атлас. Целый мир в твоих руках № 1-311 (2010-2016) [PDF, JPG] [Обновляемая]
  • Подшивка журналов | Атлас. Целый мир в твоих руках № 1-327 (2010-2016) [PDF, JPG] [Обновляемая]
  • Илья Масодов | Мрак твоих глаз (2016) [MP3]
  • В твоих глазах / In Your Eyes (2014) BDRip [H.264 / 1080p-LQ]


    • Комментарии (0):

      Информация

      Информация

        Посетители, находящиеся в группе Гости, не могут оставлять комментарии в данной новости.

        ↓ Меню




        ↓ Опрос

        Вы добавили сайт в закладки?
        Да
        Нет


        Top 10 за месяц (КПК и мобильные)